#TITLE:Who Knew;
#ARTIST:P!nk;
#FILE:Who Knew.mp3;
#BPM:139.980;
#GAP:60;
#SAMPLESTART:34.300;
#SAMPLELENGTH:14.360;
#SINGLE:BEGINNER:1:
00000000
00000000
40000000
80000000
20000000
60000000
80000000
60000000
40000000
80000000
40000000
20000000
80000000
60000000
40000000
80000000
40000000
20000000
40000000
80000000
20002000
20002000
20000000
60000000
40004000
40004000
40000000
20000000
80800000
80000000
60600000
60000000
20200000
A0000000
40000000
80000000
20000000
60000000
80000000
20000000
40000000
80008000
80000000
40000000
60000000
80008000
80000000
60000000
40000000
00000000
20200000
20000000
80800000
80000000
40400000
40000000
60600000
60000000
B0000000
20000000
40000000
20000000
80000000
60000000
20002000
20002000
20000000
80000000
40000000
60606060
60000000
40000000
A0000000
40004000
20000000
;
#SINGLE:ANOTHER:6:
00000000
00000000
80200620
80400240
80440202
00440202
00880606
00880606
60000020
20000080
80000000
00000000
00440202
00880202
00440606
00220808
20000060
20000040
20000000
40000080
40020040
60080602
00000828
00040060
40020040
20080006
00000282
00040200
40060600
80020200
80060204
08060200
80020200
B!B000B000
20420040
00820080
20600260
20800040
20440608
02040800
00220804
06040200
40240420
40204020
40240420
40204020
00440808
04040600
00880200
000000B0
B0020040
60020804
00000242
00040080
20060080
60040008
00000282
00060200
80440200
80660200
60440208
06020800
20880200
60440600
80220408
02080400
20880600
20660400
20440802
08040600
80660400
20040400
10008000
40006000
80006000
200A0B00
;
#SINGLE:MANIAC:9:
00000000
00000000
80200626
00400248
80260402!2
00120806!6
00380406!6
00920408
20080424
60020646
20600424
00800282
20620804!4
00140608!8
00920802!2
00A20604
20040828
40060868
20400828
00400646
20280840
60640420
8!80008626
04240820
60640420
80820240
8!80080262
08480460
200A0B00
80070300
80060804
08090B00
20010A00
4!40060B00
80280424
80260262
80420424
8!80A!203!60B!40
10480282
08070B00
60420604
24802820
60260280
40240480
20620420
42428686
20820602
08420100
424802!200
000020A0
B0240420
70280820
30000264
02460420
70260280
70820640
20000424
06260420
80820208
60280802
60420408
46020802
60420806
82460408
4628020A
0B0A0B00
20420408
20640204
28620826
82864200
40820482
60828640
A0820280
40240420
40620280
000A0B00
;
#SINGLE:BASIC:3:
00000000
00000000
40008000
40000000
60002000
80008000
40006000
20002000
60000000
40000000
80000000
80000000
40002000
40008000
20008000
40006000
80000000
60000000
20000000
80000000
40204000
80408000
20006000
20008000
40604000
80208000
20006000
80008000
B0000020
20000040
40000000
80402080
60000000
B0000000
80008000
40000000
20002000
80000000
60000000
40000000
80402020
80604040
60000000
40000000
80000000
40402020
80000000
60004000
20000000
00000040
40002000
40006000
80602020
804060B0
20006000
40002000
40408020
606020A0
40002000
40006000
80802040
802080A0
60002000
80004000
20204060
80602030
80002000
80004000
20204080
404080A0
40002000
40006000
B0000000
20002000
20000000
;
