#VERSION:0.82;
#TITLE:Up&Up;
#SUBTITLE:(Freedo Remix);
#ARTIST:Coldplay;
#TITLETRANSLIT:;
#SUBTITLETRANSLIT:;
#ARTISTTRANSLIT:;
#GENRE:House;
#ORIGIN:;
#CREDIT:;
#BANNER:Up&Up (Freedo Remix).png;
#BACKGROUND:Up&Up (Freedo Remix)-bg.png;
#PREVIEWVID:;
#JACKET:jacket.png;
#CDIMAGE:;
#DISCIMAGE:;
#LYRICSPATH:;
#CDTITLE:;
#MUSIC:Up&Up (Freedo Remix).ogg;
#OFFSET:-0.050000;
#SAMPLESTART:68.628448;
#SAMPLELENGTH:12.000000;
#SELECTABLE:YES;
#BPMS:0.000=98.000;
#STOPS:;
#DELAYS:;
#WARPS:;
#TIMESIGNATURES:0.000=4=4;
#TICKCOUNTS:0.000=4;
#COMBOS:0.000=1;
#SPEEDS:0.000=1.000=0.000=0;
#SCROLLS:0.000=1.000;
#FAKES:;
#LABELS:0.000=Song Start;
#BGCHANGES:4.000=Up&Up (Freedo Remix).avi=1.000=0=0=1=====,
99999=-nosongbg-=1.000=0=0=0 // don't automatically add -songbackground-
;
#KEYSOUNDS:;
#ATTACKS:
;

//---------------dance-single - ----------------
#NOTEDATA:;
#CHARTNAME:;
#STEPSTYPE:dance-single;
#DESCRIPTION:;
#CHARTSTYLE:;
#DIFFICULTY:Challenge;
#METER:8;
#RADARVALUES:0.553315,0.618674,0.222422,0.107376,0.766971,462.000000,29.000000,14.000000,0.000000,0.000000,0.000000,0.000000,0.000000,0.553315,0.618674,0.222422,0.107376,0.766971,462.000000,29.000000,14.000000,0.000000,0.000000,0.000000,0.000000,0.000000;
#CREDIT:Ben Speirs;
#NOTES:
0000
0000
0000
0000
,
0000
0000
0000
0000
,
0000
0000
0000
0000
,
0000
0000
0000
0000
,
1000
0100
0000
0000
1000
0001
0000
0000
0010
0000
0000
0001
0000
1000
0010
0000
,
0100
0001
0000
0000
0100
0010
0000
0000
1000
0000
0000
0010
0000
0100
0001
1000
,
0002
0000
0000
0000
0103
0010
0000
0000
1000
0000
0000
0001
0000
0000
1000
0001
,
2000
0000
0000
0000
3001
0100
0000
0000
0010
0000
0000
1000
0000
0001
0010
0000
,
0001
1000
0001
1000
0010
0000
1000
0100
0000
0010
0001
0000
1000
0000
0000
0000
,
1000
0001
1000
0001
1000
0000
0001
0100
0000
0010
1000
0000
0001
0000
0100
0010
,
0200
0000
0000
0000
0301
1000
0000
0000
0010
0000
0000
1000
0000
0000
0001
1000
,
0002
0000
0000
0000
1003
0100
0000
0000
1000
0010
0100
0001
0010
0100
1000
0000
,
0001
0100
0001
0100
0010
0000
1000
0010
0100
0000
0001
1000
0001
0000
0000
0000
,
1000
0100
1000
0100
0010
0000
0001
1000
0000
0010
1000
0010
1000
0100
0010
0001
,
0100
0000
0000
0000
0001
1000
0000
0000
0010
0000
0000
1000
0000
0000
0001
1000
,
0001
0000
0000
0000
1000
0100
0010
0001
1000
0000
0000
0000
0010
0100
0000
0000
,
0001
0100
0001
0100
0010
0000
1000
0010
0000
0100
0001
0000
1000
0000
0000
0000
,
0100
1000
0100
1000
0001
0000
1000
0010
0000
0100
0001
1000
0001
0000
0100
0010
,
0200
0000
0000
0000
0301
1000
0000
0000
0001
0000
0000
1000
0000
0000
0010
1000
,
0020
0000
0000
0000
0130
0000
0000
0000
0101
0000
0000
0110
0000
0000
1010
0000
,
0001
0100
0000
0000
1001
0000
0000
0000
0010
0000
0000
1000
0000
0001
0000
0010
,
0000
0000
0000
0000
1001
0000
0000
0000
0001
0000
0000
0100
0000
0001
0000
1000
,
0000
0000
0010
0000
1010
0000
0000
0000
0001
0000
1000
0100
0000
0010
0000
0001
,
2000
0000
0000
0000
3010
0000
0000
0000
1000
0100
0010
0001
1000
0000
0010
0000
,
0100
0001
0000
0000
1001
0000
0000
0000
0010
1000
0000
0001
0000
0010
0000
0100
,
0000
1000
0001
0000
1001
0000
0000
0000
1000
0010
0000
0100
0000
0001
0000
1000
,
0000
0000
0100
0000
1100
1000
0000
0000
0001
0000
0000
1000
0000
0001
0000
0100
,
0010
0000
0000
0000
0000
0000
0000
0000
0000
0000
0000
0000
1001
0000
0000
0000
0000
0000
0000
0000
0000
0000
0000
0000
0020
0000
0030
0000
0000
0000
0000
0000
0000
0100
0000
0000
0020
0000
0030
0000
0000
0000
0000
0000
0000
0100
0000
0000
,
0020
0000
0030
0000
0000
0000
1000
0000
0000
0010
0000
0000
1000
0000
0000
0010
0000
0000
0100
0000
0000
0000
0000
0000
0101
0000
0000
0000
0000
0000
0010
0000
0000
1000
0000
0000
0000
0000
0000
0000
0000
0000
1100
0000
0000
0000
0000
0000
,
0001
0000
1000
0100
1000
0001
0100
0000
1001
0000
0000
1010
0000
0001
0010
0000
,
0100
0000
1000
0001
1000
0001
0100
0000
0010
0000
1000
0001
0000
1000
0010
0000
,
0100
0000
0001
0010
0100
1000
0001
0000
1000
0000
0010
1000
0010
0000
0100
0001
,
1000
0000
1010
0000
0001
0010
0100
0000
0110
0000
0001
0010
0000
0010
0100
1000
,
0001
0000
1001
0000
1000
0010
0100
0001
1000
0000
0000
1010
0000
0000
1001
0000
,
0001
0000
0100
0010
0100
0001
1000
0000
0010
0100
0010
1000
0001
0010
0100
1000
,
0001
0000
1100
0000
0001
0100
0010
1000
0001
0000
0100
0001
1000
0000
0010
1000
,
0002
0000
0000
0000
1003
0100
0010
0100
0010
0100
0010
0100
0010
0001
1000
0000
,
0001
0100
0010
0000
1000
0010
0100
0001
1000
0000
0001
0100
0001
0000
1000
0100
,
1000
0000
0001
0000
0100
0010
0100
0000
0101
0000
0010
1000
0010
1000
1100
0000
,
0001
0000
1000
0100
0010
0001
1000
0000
0010
0100
0010
0100
0001
0000
0100
0010
,
1000
0000
1010
0000
1010
1000
0100
0010
0001
0000
0011
0010
0100
1000
0001
0100
,
0010
0000
0101
0000
0010
0100
0001
0000
1100
0000
0101
0000
0010
1000
0001
0010
,
0100
0000
1000
0100
1000
0100
0010
0001
1000
0001
0100
0010
0100
0010
1000
0001
,
0010
0000
0001
0010
0100
1000
0001
0000
1000
0010
0001
0010
1000
0010
0100
0000
,
0001
0100
0010
0000
0101
0000
0000
0000
0001
1000
0001
1000
0000
0010
0000
0100
,
0000
0000
0001
1000
0001
1000
0000
0000
0010
1000
0010
1000
0000
0001
0000
0010
,
0000
0000
0001
0100
0001
0100
0000
0000
0001
1000
0001
1000
0000
0100
0000
1000
,
0000
0000
0000
0000
0010
0000
0000
0000
1000
0010
0100
0001
0010
0100
1000
0000
,
0001
1000
0000
0000
0010
0100
0000
0000
0001
1000
0000
0100
0000
0010
0000
0001
,
0000
0000
1000
0100
1000
0100
0000
0000
1000
0010
0000
0100
0000
0001
0000
1000
,
0000
0000
0001
0100
0001
0100
0000
0000
0010
0100
0000
0001
0000
1000
0000
0001
,
0100
0000
0000
0000
0000
0000
0000
0000
0000
0000
0000
0000
0000
0000
0000
0000
0000
0000
0000
0000
0000
0000
0000
0000
0020
0000
0030
0000
0000
0000
0000
0000
0000
0100
0000
0000
0020
0000
0030
0000
0000
0000
0000
0000
0000
0100
0000
0000
,
0020
0030
0000
0000
0000
0000
0000
0000
0000
0000
0000
0000
0000
0000
0000
0000
0000
0000
0000
0000
0000
0000
0000
0000
;

//---------------dance-single - ----------------
#NOTEDATA:;
#CHARTNAME:;
#STEPSTYPE:dance-single;
#DESCRIPTION:;
#CHARTSTYLE:;
#DIFFICULTY:Hard;
#METER:6;
#RADARVALUES:0.330893,0.358943,0.191743,0.053688,0.138055,270.000000,25.000000,7.000000,0.000000,0.000000,0.000000,0.000000,0.000000,0.330893,0.358943,0.191743,0.053688,0.138055,270.000000,25.000000,7.000000,0.000000,0.000000,0.000000,0.000000,0.000000;
#CREDIT:Ben Speirs;
#NOTES:
0000
0000
0000
0000
,
0000
0000
0000
0000
,
0000
0000
0000
0000
,
0000
0000
0000
0000
,
1000
0100
0000
0000
1000
0000
0000
0000
0010
0000
1000
0000
0001
0000
0000
0000
,
0010
0001
0000
0000
1000
0000
0000
0000
0001
0000
1000
0000
0010
0000
0000
0000
,
0200
0000
0301
0000
0100
0010
1000
0000
,
0020
0000
0130
0000
0001
1000
0100
0000
,
1000
0001
0000
0000
0010
0000
0000
0000
0001
0000
1000
0000
0100
0000
0000
0000
,
1000
0010
0000
0000
0100
0000
0000
0000
0010
0000
0100
0000
0001
0000
0000
0000
,
0200
0000
0310
0000
0100
0001
1000
0000
,
0020
0000
1030
0000
0001
0010
0100
0000
,
1000
0100
1000
0100
0010
0000
0010
0000
,
0001
0100
0001
0100
0010
0000
0010
0000
,
1001
0000
1000
0000
0010
1000
0001
0000
,
1001
0000
0001
0000
0010
0001
1000
0000
,
0100
0100
0100
0000
1000
0000
1010
0000
,
0001
0001
0001
0000
0100
0000
1010
0000
,
1200
0000
0300
0000
1000
0001
1000
0000
,
0201
0000
0300
0000
0010
0100
0001
0000
,
0100
0000
1001
0000
0010
0000
1000
0001
,
0100
0000
1001
0000
0001
0000
0010
0001
,
1000
1000
1100
0000
0001
0001
0101
0000
,
1000
0000
0010
0000
0100
0010
1000
0001
,
0010
0000
1001
0000
0001
1000
0100
0100
,
0010
0000
1001
0000
1000
0001
0100
0100
,
0010
0000
1010
0000
0001
0010
0011
0000
,
1000
0000
0010
0010
,
1001
0000
0000
0000
1000
0000
0100
0000
0010
0000
0000
0010
0000
0000
0001
0000
,
1000
0010
0000
0100
0100
0000
0001
0000
,
1000
0000
0001
0000
0000
0000
0100
0000
0100
0000
0000
0010
0000
0000
0010
0000
,
1000
0001
0000
0010
0001
1000
0100
0000
,
1000
0000
0001
0000
0000
0100
0000
0000
0100
0000
0000
0010
0000
0000
0010
0000
,
1000
0000
0001
0000
0000
1000
0000
0000
0100
0000
0000
1000
0001
0000
0000
1000
,
0001
0000
0100
0000
0000
0010
0000
0000
0010
0000
0000
1000
0000
0000
0001
0000
,
0000
0000
0010
0000
0001
0000
1000
0000
0100
0000
0000
1000
0010
0000
0000
1000
,
0002
0000
0000
0000
0103
0010
0000
0000
0100
0000
0000
0001
0000
0000
1000
0000
,
0000
0000
0010
0000
0000
1000
0000
0000
0001
0000
0000
0010
0001
0000
0000
1000
,
0010
0000
0000
0000
0100
0001
0000
0000
1000
0000
0000
0001
0000
0000
0100
0000
,
0000
0000
0010
0000
0000
0100
0000
0000
0001
0000
0010
0000
0100
0000
1000
0000
,
0001
0000
1000
0000
0000
0010
0100
0000
0010
0000
0000
1000
0000
0001
1000
0000
,
0000
0000
1001
0000
0000
0001
0000
0000
0100
0000
0000
0100
0010
0000
0000
0010
,
1000
0000
0001
0000
0000
1100
0000
0000
0101
0000
0000
1001
0000
0000
1010
0000
,
0000
0000
0001
0000
0000
0010
0000
0000
0001
0000
0000
1000
0100
0000
0000
1000
,
0001
0110
1001
0110
,
1000
0000
0110
0000
1001
0000
1000
0001
,
0100
0100
0010
0000
1000
0000
0010
1000
,
0100
0000
0010
0000
0010
0100
1000
0010
,
0100
0001
0000
0000
1000
0000
0000
0000
0010
0000
1000
0000
0001
0000
0000
0000
,
1000
0100
0000
0000
1000
0000
0000
0000
0001
0000
0010
0000
0100
0000
1000
0000
,
0010
0010
0100
0000
0010
0100
0001
1000
,
0001
0000
0010
0010
,
0010
0000
0000
0000
;

//---------------dance-single - ----------------
#NOTEDATA:;
#CHARTNAME:;
#STEPSTYPE:dance-single;
#DESCRIPTION:;
#CHARTSTYLE:;
#DIFFICULTY:Medium;
#METER:3;
#RADARVALUES:0.215848,0.239295,0.076697,0.061358,0.000000,179.000000,10.000000,8.000000,0.000000,0.000000,0.000000,0.000000,0.000000,0.215848,0.239295,0.076697,0.061358,0.000000,179.000000,10.000000,8.000000,0.000000,0.000000,0.000000,0.000000,0.000000;
#CREDIT:Ben Speirs;
#NOTES:
0000
0000
0000
0000
,
0000
0000
0000
0000
,
0000
0000
0000
0000
,
0000
0000
0000
0000
,
0010
0000
0010
0000
1000
0001
0100
0000
,
0001
0000
0000
0000
0100
0000
0010
1000
,
0200
0000
0300
0000
1000
0000
1000
0001
,
0200
0300
0010
0000
,
0100
0000
0100
0000
0001
1000
0010
0100
,
0001
0000
1000
1000
,
0200
0000
0300
0000
1000
0000
0001
1000
,
0020
0030
0100
0000
,
1001
0001
0100
0010
,
1000
0000
1000
0000
0001
0000
1000
0100
,
0020
0000
0030
0000
0001
0000
0010
0001
,
0200
0300
0001
0000
,
0100
0100
0010
1000
,
0010
0000
1000
0000
0001
0000
0010
0001
,
2000
0000
3000
0000
0100
0000
0100
1000
,
0002
0003
0100
0000
,
0010
1001
1000
0000
,
0010
1001
0001
0000
,
0100
1001
1000
0000
,
0100
1001
0001
0000
,
0010
0010
0001
0100
,
0010
0010
1000
0001
,
0010
0010
0100
1000
,
0010
0000
0010
0010
,
0010
0000
1000
0001
,
0100
0000
0001
1000
,
0010
0000
1000
0100
,
0010
0000
0001
1000
,
0010
0000
0100
0100
,
0010
0000
0010
0010
,
1000
0000
1000
1000
,
0001
0000
1000
0000
0001
0010
0100
0000
,
1000
0000
0101
0000
1000
0000
0010
1000
,
0000
0000
0001
0000
1000
0000
0100
0100
,
0000
0000
1000
0000
0001
0000
0010
0010
,
0000
0000
0001
0000
0100
0000
0010
1000
,
0000
0000
1001
0000
0001
0000
0100
0100
,
0000
0000
1001
0000
1000
0000
0010
1000
,
0100
0000
0000
0000
1000
1000
1000
0000
,
0100
0100
1000
0000
,
0000
1001
1001
0010
,
1000
0001
1000
0100
,
1000
0001
0010
0010
,
0001
0000
0100
0000
0010
1000
0010
1000
,
0100
1000
0100
0100
,
0010
0010
0001
1000
,
0010
0010
0010
0000
0100
0000
0001
0000
,
1000
0000
0010
0010
,
0010
0000
0000
0000
;

//---------------dance-single - ----------------
#NOTEDATA:;
#CHARTNAME:;
#STEPSTYPE:dance-single;
#DESCRIPTION:;
#CHARTSTYLE:;
#DIFFICULTY:Easy;
#METER:2;
#RADARVALUES:0.135863,0.139589,0.007670,0.000000,0.000000,123.000000,1.000000,0.000000,0.000000,0.000000,0.000000,0.000000,0.000000,0.135863,0.139589,0.007670,0.000000,0.000000,123.000000,1.000000,0.000000,0.000000,0.000000,0.000000,0.000000,0.000000;
#CREDIT:Ben Speirs;
#NOTES:
0000
0000
0000
0000
,
0000
0000
0000
0000
,
0000
0000
0000
0000
,
0000
0000
0000
0000
,
1000
0000
0001
1000
,
0100
0000
1000
0001
,
0010
0000
0001
1000
,
0010
0000
1000
0000
,
0001
0100
0001
0000
,
1000
0100
1000
0000
,
0010
0000
1000
1000
,
0010
0000
1000
0000
,
0001
0000
0010
0001
,
1000
0000
0001
1000
,
0100
0000
0000
0100
,
0100
0000
0000
0000
,
1000
0000
0001
0001
,
1000
0000
1000
1000
,
0010
0000
1000
0000
,
0010
0000
0000
0000
,
0100
0100
0000
0000
,
0001
0001
0000
0000
,
1000
1000
0000
0000
,
0001
0000
1000
0000
,
0010
0010
0000
0000
,
1000
1000
0000
0000
,
0001
0001
0000
0000
,
0100
0000
0010
0010
,
0010
0000
1000
0001
,
0010
0000
0001
1000
,
0100
0000
1000
0001
,
0100
0000
0010
0010
,
0010
0000
1000
0010
,
0100
0000
0010
0100
,
0001
0000
0100
0001
,
1000
0000
0010
0010
,
0010
0000
1000
0000
,
0001
0000
0100
0100
,
0010
0000
1000
0000
,
0100
0000
0010
0010
,
0010
0000
0001
0001
,
0100
0000
0010
0000
,
1000
1000
0001
0001
,
0100
0000
0010
0000
,
0000
1001
0000
1000
,
0000
0001
0000
0100
,
0000
0010
0000
1000
,
0000
0000
0100
0100
,
0010
0000
0001
0001
,
1000
0000
1000
1000
,
0001
0000
0100
0001
,
1000
0000
0010
0010
,
0010
0000
0000
0000
;

//---------------dance-single - ----------------
#NOTEDATA:;
#CHARTNAME:;
#STEPSTYPE:dance-single;
#DESCRIPTION:;
#CHARTSTYLE:;
#DIFFICULTY:Beginner;
#METER:1;
#RADARVALUES:0.107376,0.139589,0.000000,0.000000,0.000000,98.000000,0.000000,0.000000,0.000000,0.000000,0.000000,0.000000,0.000000,0.107376,0.139589,0.000000,0.000000,0.000000,98.000000,0.000000,0.000000,0.000000,0.000000,0.000000,0.000000,0.000000;
#CREDIT:Ben Speirs;
#NOTES:
0000
0000
0000
0000
,
0000
0000
0000
0000
,
0000
0000
0000
0000
,
0000
0000
0000
0000
,
0010
0000
0000
0000
,
0010
0000
0000
0000
,
0010
0000
0000
0000
,
0010
0000
0000
0000
,
0010
0000
0000
0000
,
0010
0000
0000
0000
,
0010
0000
0000
0000
,
0010
0000
0000
0000
,
0010
0010
0000
0000
,
0010
0010
0000
0000
,
0010
0000
0000
0010
,
0010
0000
0000
0000
,
0010
0010
0000
0000
,
0010
0010
0000
0000
,
0010
0000
0000
0010
,
0010
0000
0000
0000
,
0010
0000
0010
0010
,
0000
0000
0010
0010
,
0000
0000
0010
0010
,
0010
0000
0010
0000
,
0010
0000
0000
0010
,
0010
0000
0000
0010
,
0010
0000
0000
0010
,
0010
0000
0010
0010
,
0010
0000
0010
0010
,
0010
0000
0010
0010
,
0010
0000
0010
0010
,
0010
0000
0010
0000
,
0010
0000
0010
0010
,
0010
0000
0010
0010
,
0010
0000
0010
0010
,
0010
0000
0010
0000
,
0000
0010
0010
0000
,
0000
0010
0010
0000
,
0010
0000
0010
0010
,
0000
0000
0010
0010
,
0010
0000
0010
0010
,
0000
0010
0010
0010
,
0000
0010
0010
0000
,
0010
0000
0010
0000
,
0000
0010
0010
0000
,
0000
0010
0010
0000
,
0000
0010
0010
0000
,
0010
0000
0010
0000
,
0010
0000
0000
0010
,
0010
0000
0000
0010
,
0010
0000
0000
0000
,
0010
0000
0010
0010
,
0010
0000
0000
0000
;

//---------------dance-double - ----------------
#NOTEDATA:;
#CHARTNAME:;
#STEPSTYPE:dance-double;
#DESCRIPTION:;
#CHARTSTYLE:;
#DIFFICULTY:Challenge;
#METER:8;
#RADARVALUES:0.478809,0.598238,0.099706,0.130385,0.452513,407.000000,13.000000,17.000000,0.000000,0.000000,0.000000,0.000000,0.000000,0.478809,0.598238,0.099706,0.130385,0.452513,407.000000,13.000000,17.000000,0.000000,0.000000,0.000000,0.000000,0.000000;
#CREDIT:Ben Speirs;
#NOTES:
// measure 0
00000000
00000000
00000000
00000000
,  // measure 1
00000000
00000000
00000000
00000000
,  // measure 2
00000000
00000000
00000000
00000000
,  // measure 3
00000000
00000000
00000000
00000000
,  // measure 4
10000000
01000000
00000000
00000000
10000000
00000000
00000000
00000000
00100000
00000000
10000000
00000000
00010000
00000000
00000000
00000000
,  // measure 5
00100000
00010000
00000000
00000000
01000000
00000000
00000000
00000000
00010000
00000000
00100000
00000000
00001000
00000000
00010000
00001000
,  // measure 6
00020000
00000000
00000000
00000000
00030100
00000000
00000000
00000000
00010000
00000000
00000100
00000000
00001000
00000000
00000010
00001000
,  // measure 7
00000020
00000000
00000130
00000000
00000001
00001000
00000010
00000000
,  // measure 8
00001000
00000001
00000000
00000000
00000010
00000000
00000000
00000000
00000001
00000000
00001000
00000000
00000100
00000000
00000000
00000000
,  // measure 9
00001000
00000010
00000000
00000000
00000100
00000000
00000000
00000000
00000001
00000000
00001000
00000000
00000100
00000000
00010000
00001000
,  // measure 10
00020000
00000000
00000000
00000000
00031000
00000000
00000000
00000000
00010000
00000000
00001000
00000000
00100000
00000000
00010000
01000000
,  // measure 11
00020000
00000000
01030000
00000000
00100000
01000000
00010000
00000000
,  // measure 12
10000000
01000000
10000000
00000000
00100000
00000000
01000000
00000000
00010000
00000000
10000000
01000000
00100000
00000000
00000000
00000000
,  // measure 13
00010000
00100000
00010000
00000000
10000000
00000000
00100000
00000000
01000000
00000000
00010000
00100000
00010000
00000000
00100000
00001000
,  // measure 14
00100000
00000000
00000000
00000000
00001000
00000000
00000000
00000000
00010000
00000000
00001000
00000000
00010000
00000000
00000100
00001000
,  // measure 15
00000020
00000000
00000130
00000001
00002000
00000000
00003010
00000000
,  // measure 16
00001000
00000001
00001000
00000000
00000010
00000000
00000100
00000000
00000001
00000010
00000100
00000000
00001000
00000000
00000000
00000000
,  // measure 17
00000100
00001000
00000100
00000000
00001000
00000000
00000100
00000000
00010000
00001000
00010000
00000000
00000100
00000000
00001000
00000010
,  // measure 18
00000200
00000000
00000000
00000000
00000301
00000000
00000000
00000000
00000100
00000000
00000010
00000000
00001000
00000000
00000100
00000010
,  // measure 19
00000002
00000000
00000000
00000003
00000100
00000000
00000000
00000000
00000001
00000000
00000100
00000000
00000010
00000000
00000000
00000000
,  // measure 20
00001000
00000100
00000000
00000000
00011000
00000000
00000000
00000000
00010000
00000000
00001000
00100000
00000000
00100000
00000000
00010000
,  // measure 21
00000000
10000000
00100000
00000000
01000000
00000000
00000000
00000000
00100000
00000000
10000000
01000000
00000000
01000000
00000000
00100000
,  // measure 22
00000000
00010000
10000000
00000000
00100000
00000000
00000000
00000000
10000000
00000000
01000000
00100000
01000000
00000000
00100000
00010000
,  // measure 23
00100000
00000000
00001000
00000000
00100000
00001000
00010000
00000000
,  // measure 24
00001000
00100000
00000000
00000000
00110000
00000000
00000000
00000000
10100000
00000000
00000000
00100000
00000000
01000000
00000000
00010000
,  // measure 25
10000000
00000000
00100000
10000000
00100000
00000000
00000000
00000000
10000000
00000000
00000000
00010000
00000000
01000000
00000000
00010000
,  // measure 26
10000000
00000000
01000000
10000000
01000000
10000000
00000000
00000000
00010000
01000000
00010000
01000000
00000000
00100000
00000000
10000000
,  // measure 27
00010000
00100000
00110000
00011000
,  // measure 28
00001100
00000000
00000000
00000000
00001000
00000010
00000100
00000000
00000001
00000000
00000100
00000010
00000000
00000010
00001000
00000000
,  // measure 29
00000001
00000000
00000010
00000000
00000000
00000001
00001000
00000000
00000010
00000000
00001000
00000100
00010000
00000000
00001000
00010000
,  // measure 30
00002000
00000000
00000000
00000000
00103000
00010000
00100000
00000000
00001000
00000000
00010000
00100000
00000000
00100000
10000000
00000000
,  // measure 31
00000000
00000000
00010000
00000000
10000000
01000000
10000000
00000000
00100000
00000000
01000000
00010000
01000000
00000000
00100000
10000000
,  // measure 32
01000000
00000000
10000000
00100000
00000000
00100000
01000000
00000000
00010000
00000000
00000000
01000000
00100000
01000000
00100000
00000000
,  // measure 33
10000000
00000000
00100000
01000000
00000000
01000000
00010000
00000000
00100000
00000000
00010000
00100000
00010000
00000000
00100000
00001000
,  // measure 34
00010000
00000000
00000100
00000000
00000000
00010000
00001000
00000000
00010000
00000000
00000100
00001000
00000000
00001000
00000010
00000000
,  // measure 35
00000100
00000000
00000001
00000100
00000001
00000000
00001000
00000000
00000100
00000000
00000010
00000001
00000010
00000000
00000001
00001000
,  // measure 36
00000020
00000000
00000000
00000000
00001030
00000100
00010000
00001000
00100000
00010000
10000000
00100000
01000000
00010000
20000000
00000000
,  // measure 37
00000000
00000000
30100000
01000000
00100000
00000000
10000000
00000000
00010000
00000000
10000000
01000000
00100000
00000000
01000000
00100000
,  // measure 38
00020000
00000000
00000000
00000000
01030000
00100000
01000000
00000000
00010000
00000000
00100000
00001000
00000000
00001000
00100000
00000000
,  // measure 39
00010000
00000000
10000000
00100000
01000000
00000000
00010000
00000000
01000000
00000000
00001000
00010000
00000100
00000000
00001000
00000010
,  // measure 40
00000200
00000000
00000000
00000000
00000301
00000100
00001000
00000100
00001000
00000100
00001000
00000100
00000001
00001000
00000100
00000000
,  // measure 41
00001000
00000000
00001100
00000000
00000100
00010000
00001000
00000000
00011000
00000000
00101000
00000000
00010000
10000000
00100000
01000000
,  // measure 42
00010000
00000000
10010000
00000000
11000000
10000000
00100000
01000000
00010000
00000000
00000000
01010000
01000000
00100000
10000000
00000000
,  // measure 43
00010000
00000000
11000000
00000000
00010000
01000000
00100000
00000000
01000000
00010000
00100000
00001000
00010000
00000000
00001000
00010000
,  // measure 44
00000200
00000000
00001000
00010000
00001000
00010000
00001000
00010000
,  // measure 45
00020300
00000000
00001000
00000100
00001000
00000100
00001000
00000100
,  // measure 46
00032000
00000000
00100000
00010000
00100000
00010000
00100000
00010000
,  // measure 47
00203000
00000000
00000000
00000000
00310000
00000000
10000000
00000000
00100000
00000000
01000000
00010000
01000000
00000000
00100000
00000000
,  // measure 48
10000000
01000000
10000000
00000000
00010000
00000000
00000000
00000000
01000000
00100000
01000000
00100000
00000000
10000000
00000000
01000000
,  // measure 49
00100000
00000000
00010000
00100000
00010000
00100000
00000000
00000000
00001000
00000000
00100000
00001000
00000000
00010000
00000000
00000100
,  // measure 50
00001000
00000000
00000010
00001000
00000010
00001000
00000000
00000000
00000001
00000100
00000001
00000100
00000000
00000010
00000000
00001000
,  // measure 51
00000100
00000000
00000010
00100000
,  // measure 52
00000010
00000000
00000000
00000000
;
