#TITLE:Taking Over Me;
#SUBTITLE:;
#ARTIST:Lawson;
#TITLETRANSLIT:;
#SUBTITLETRANSLIT:;
#ARTISTTRANSLIT:;
#CREDIT:;
#BANNER:Taking Over Me-bn.png;
#BACKGROUND:Taking Over Me-bg.png;
#LYRICSPATH:;
#CDTITLE:;
#MUSIC:Taking Over Me.mp3;
#OFFSET:-0.040;
#SAMPLESTART:50.560;
#SAMPLELENGTH:14.540;
#SELECTABLE:YES;
#BPMS:0.000=114.000;
#STOPS:;
#BGCHANGES:;

//---------------dance-single - ----------------
#NOTES:
     dance-single:
     :
     Beginner:
     1:
     0.095,0.129,0.044,0.000,0.000:
0000
0000
0000
0000
,
0000
0000
0000
0000
,
0000
0000
0000
0000
,
0000
0000
0000
0000
,
0010
0000
0000
0000
,
1000
0000
1000
0000
,
0100
0000
0000
0000
,
0010
0000
0010
0000
,
0110
0000
0000
0000
,
1000
0000
0100
0000
,
0010
0000
0000
0000
,
0001
0000
0100
0000
,
0001
0000
0000
0000
,
1000
0000
0010
0000
,
1000
0000
0000
0000
,
0100
0000
1000
0000
,
1001
0000
0000
0000
,
0010
0000
0010
0000
,
1000
0000
0000
0000
,
0001
0000
0001
0000
,
0100
0000
0000
0000
,
0010
0000
0010
0000
,
0100
0000
0000
0000
,
1000
0000
1000
0000
,
1001
0000
0000
0000
,
0000
0000
0000
0000
,
0010
0010
0010
0000
,
0000
0000
0000
0000
,
0100
0100
0100
0000
,
0000
0000
0000
0000
,
0001
0000
0001
0000
,
0001
0000
0000
0000
,
1000
0000
1000
0000
,
1000
0000
0000
0000
,
0010
0000
0000
0000
,
0000
0000
0000
0000
,
0100
0000
0100
0000
,
0100
0100
0100
0000
,
0100
0000
0100
0000
,
0100
0100
0100
0000
,
0000
0000
0000
0000
,
1001
0000
0010
0000
,
1000
0000
0100
0000
,
1000
0000
0001
0000
,
0010
0000
0000
0000
,
0110
0000
0010
0000
,
0001
0000
1000
0000
,
0010
0000
1000
0000
,
0100
0100
0100
0000
;

//---------------dance-single - ----------------
#NOTES:
     dance-single:
     :
     Medium:
     5:
     0.259,0.283,0.116,0.311,0.000: // measure 1
0000
0000
0000
0000
,  // measure 2
0000
0000
0000
0000
,  // measure 3
0000
0000
0000
0000
,  // measure 4
0000
0000
0000
0000
,  // measure 5
0020
2030
3200
0300
,  // measure 6
1000
0000
0001
0100
0010
0000
0000
0000
,  // measure 7
0200
0302
0023
0030
,  // measure 8
0001
0000
0010
0100
1000
0000
0000
0000
,  // measure 9
0110
0100
0001
1000
,  // measure 10
0100
0000
0100
0000
1000
0000
0010
0100
,  // measure 11
0001
0100
0010
0010
,  // measure 12
1000
0001
1000
0000
,  // measure 13
1100
0100
1000
0010
,  // measure 14
0100
0000
0001
0100
0010
0000
0000
0000
,  // measure 15
0110
0100
0001
1000
,  // measure 16
0100
0000
0010
0001
0100
0000
0000
0000
,  // measure 17
0020
0130
1000
0001
,  // measure 18
0100
0010
1000
0001
,  // measure 19
2000
3100
0010
1000
,  // measure 20
0001
0010
0100
0000
,  // measure 21
0020
0031
0100
0010
,  // measure 22
0100
0000
0001
1000
0100
0000
0000
0000
,  // measure 23
2000
3100
1000
0010
,  // measure 24
1000
0000
0010
0100
0001
0000
0000
0000
,  // measure 25
0110
1001
0110
0000
,  // measure 26
0000
0000
1000
0100
1000
0100
1000
0000
,  // measure 27
1001
0110
1001
0000
,  // measure 28
0000
0000
0001
0010
0001
0010
0001
0000
,  // measure 29
1001
0110
1001
0000
,  // measure 30
0000
0000
0100
0010
0100
0010
0100
0000
,  // measure 31
0020
0000
2000
0030
,  // measure 32
0200
0000
3300
0000
,  // measure 33
2000
0000
0002
3000
,  // measure 34
0020
0000
0033
0000
,  // measure 35
2002
0000
0000
0000
,  // measure 36
0000
0000
0000
3003
,  // measure 37
0010
0010
1000
0100
,  // measure 38
0010
0002
0200
0303
,  // measure 39
0010
0100
0001
1000
,  // measure 40
0100
2000
0020
3000
,  // measure 41
0200
0000
0330
0000
,  // measure 42
0010
0000
0001
0000
0100
0100
0010
0000
,  // measure 43
2000
3200
0320
0030
,  // measure 44
0001
0000
1000
0000
0010
0010
1000
0000
,  // measure 45
0002
0023
0230
0300
,  // measure 46
0010
0000
0001
0000
0100
0100
0010
0000
,  // measure 47
2000
3020
0230
0300
,  // measure 48
0010
0000
1000
0000
0001
0001
1000
0000
,  // measure 49
0200
0320
0032
0000
,  // measure 50
0103
0000
0000
0000
;

//---------------dance-single - ----------------
#NOTES:
     dance-single:
     :
     Hard:
     8:
     0.341,0.396,0.258,0.267,0.053:
0000
0000
0000
0000
,
0000
0000
0000
0000
,
0000
0000
0000
0000
,
0000
0000
0000
0000
,
0010
0000
0000
0010
0100
0000
0000
0100
0002
0000
0000
0000
0103
0000
0000
0000
,
0010
0000
1000
0000
0100
0010
0001
0000
,
1000
0000
0000
1000
0001
0000
0000
0001
0200
0000
0000
0000
0310
0000
0000
0000
,
0001
0000
0100
0000
0010
1000
0100
0000
,
0000
1000
0100
1000
0100
0000
0100
0000
,
0000
0000
0010
0000
0001
0000
0010
0000
0001
0000
0000
0001
0000
0000
0001
0000
,
0000
0100
0010
0100
0010
0000
0010
0000
,
0000
0000
1000
0000
0100
0000
1000
0000
0100
0000
0000
0100
0000
0000
0100
0000
,
0000
0000
1000
0010
0100
0010
1000
0000
,
0001
0010
0100
0010
0020
0000
0030
0000
,
0000
0000
0010
0001
0100
0010
1000
0000
,
0100
1000
0010
0100
0200
0000
0300
0000
,
0000
1000
0100
1000
0001
0010
0100
0000
,
0000
0010
0001
0100
0010
0100
0001
0000
,
0000
0010
0001
1000
0100
1000
0010
0000
,
0000
0100
0010
1000
0100
1000
0001
0000
,
0000
0000
0100
0010
1000
0100
1000
0000
,
0010
0100
0001
0010
0020
0000
0030
0000
,
0000
0000
0001
0010
0100
0010
0001
0000
,
1000
0010
0100
0010
0020
0000
1030
0000
,
1000
0000
0000
1000
0001
0000
0000
0001
0200
0000
0000
0000
0000
0000
0000
0000
,
0300
0010
0100
0001
0100
0010
1000
0000
,
0001
0000
0000
0001
1000
0000
0000
1000
0200
0000
0000
0000
0000
0000
0000
0000
,
0300
0010
0001
0010
0100
1000
0001
0000
,
1000
0000
0000
1000
0001
0000
0000
0001
0200
0000
0000
0000
0000
0000
0000
0000
,
0300
0010
0100
0001
1000
0010
0100
0000
,
2020
3030
2002
3003
,
0210
0000
0301
0100
1000
0000
0010
0000
,
2200
3300
0220
0330
,
2001
0000
3010
0100
0010
1000
0001
0000
,
0220
0000
0000
0000
,
0000
0000
0000
0330
,
0001
0100
1000
1000
,
0010
0000
1000
0010
0100
0000
0000
0000
,
0010
1000
0001
0001
,
0010
0000
0001
1000
0200
0000
0010
0000
,
0010
0010
0020
0330
,
1001
1001
0110
0110
,
0002
0000
0103
0010
2000
0000
3000
0000
,
1100
1100
0011
0011
,
0100
0000
0010
1000
0002
0000
0003
0000
,
1010
0101
1100
0011
,
1001
0110
2002
3003
,
1100
0011
1010
1001
,
0110
0101
2100
0000
,
0002
0000
3003
0000
;

//---------------dance-single - ----------------
#NOTES:
     dance-single:
     :
     Easy:
     3:
     0.159,0.174,0.036,0.018,0.000:
0000
0000
0000
0000
,
0000
0000
0000
0000
,
0000
0000
0000
0000
,
0000
0000
0000
0000
,
0010
1000
0100
0000
,
1000
1000
0100
0000
,
1000
0001
0010
0000
,
0001
0001
0100
0000
,
0020
0000
0030
0000
,
0100
0010
0100
0000
,
0002
0000
0003
0000
,
0100
0001
0100
0000
,
0010
1000
0100
0000
,
1000
0100
0010
0000
,
0001
0010
0100
0000
,
0010
0100
1000
0000
,
1001
0000
0100
0000
,
0010
0000
1000
0000
,
0001
0000
1000
0000
,
0100
0100
0010
0001
,
1000
0000
0001
0000
,
1000
0000
0010
0000
,
1000
0000
0100
0000
,
1000
1000
0100
0000
,
0010
0010
0010
0000
,
0000
0001
1000
0001
,
0100
0100
0100
0000
,
0000
1000
0001
1000
,
0100
0100
0100
0000
,
0000
1000
0001
1000
,
0010
0000
0100
0000
,
1001
0000
0000
0000
,
0001
0000
1000
0000
,
0110
0000
0000
0000
,
1000
0000
0000
0000
,
1000
0000
0000
0000
,
0001
0001
0001
0001
,
0001
0001
0001
0000
,
1000
1000
1000
1000
,
1000
1000
0000
0000
,
0000
0000
0000
0000
,
0010
1000
0100
0100
,
1000
0010
0010
0000
,
1000
0001
0100
0100
,
0001
0010
0010
0000
,
0100
0100
0010
0001
,
0100
0100
0010
0000
,
1000
1000
0100
0010
,
0010
0100
1000
0000
,
1001
0000
0000
0000
;
