#TITLE:Oh Hai Mark;
#ARTIST:MiCrowJupiter;
#FILE:Oh Hai Mark.mp3;
#BPM:68.000;
#GAP:530;
#SAMPLESTART:70.680;
#SAMPLELENGTH:16.360;
#FREEZE:120.000=1340.000;
#CHANGEBPM:120.000=136.000,252.000=68.000,380.000=136.000;
#SINGLE:BEGINNER:1:
00000000
00000000
80000000
80000000
20002000
80008000
40004000
60006000
00000020
20200020
00000080
00000040
00000060
00000040
40400040
00000080
00200080
80800040
00600020
20200000
00B00000
00B00000
00B00080
80800020
00000080
00000040
00400040
00000020
00000080
00000060
00600060
00000020
00200020
00000080
00000040
00000080
00000040
00000060
60606000
00B00000
;
#SINGLE:MANIAC:15:
00000000
00000000
2!203!60B!401!20
1!4070B!B0B0
(2084204060263080)
(2064204080287046)
(4628402040623082)
(6046402470002626)
`4000000000002000000000004000000000006000000000004!4000400000000000000000008!8000800000000000000000002!2000200000000000000000006!600060000000000000000000100000000000000000000000B00000000000000000000000'
`2000000000000000000000004000000000000000000000008000000000002000000000006!600060000000000000000000B00000000000000000000000300000000000000000000000800000000000400000000000800000000000200000000000'
`6000000000008000000000002000000000004000000000006!6000600000000000000000004!4000400000000000000000008!8000800000000000000000002!200020000000000000000000600000000000400000000000600000000000000000000000'
(002828406!60308426)
`2000000000004000000000008000000000002000000000008!8000800000000000000000002!2000200000000000000000006!6000600000000000000000004!400040000000000000000000B00000000000000000000000100000000000000000000000'
`7000000000000000000000003000000000000000000000008!8000800000000000000000002!200020000000000000000000300000000000000000000000B00000000000000000000000200000000000400000000000800000000000600000000000'
(828260B020A06460)
(0028280000B04!4074)
{6080600000000000402040008000400020008000600000002000800020006000}
(42466442!202004640)
(8428646020884246)
(28266448!808000464)
(8206B220A0008424)
{6000200000008000200000604000002040004000200020008000600020004000}
(26089220B0008!8076)
{4!4000000010000000200080006000400080208020800000006000000080000000}
48642462
42842864
82648684
24628268
24828424
68486428
62486284
(2080604080002626)
`2000000000006000000000002000000000006000000000004!4000400000000000000000006!6000600000000000000000002!2000200000000000000000006!600060000000000000000000400000000000000000000000200000000000000000000000'
`8000000000000000000000006000000000000000000000002!2000200000000000000000006!600060000000000000000000B00000000000000000000000300000000000000000000000200000000000800000000000200000000000800000000000'
`2000000000008000000000002000000000008000000000004!4000400000000000000000008!8000800000000000000000006!6000600000000000000000008!800080000000000000000000200000000000800000000000200000000000000000000000'
(006464802!20A08262)
`800000000000400000000000200000000000800000000000600000000000000000000000200000000000000000000000A000000000000000000000003000000000000000000000004!4000400000000000000000008!800080000000000000000000'
`2!2000200000000000000000006!6000600000000000000000008000000000000000000000006000000000000000000000004!4000400000000000000000008!800080000000000000000000200000000000000000000000A00000000000000000000000'
46B48A8A
(4020862000000000)
;
#SINGLE:ANOTHER:8:
00000000
00000000
8!8000A!2000
3!6000B!4000
14628000
(2060402040000082)
(8040608020000086)
(40000082A0006040)
20846040
60222060
40246044
06600040
80284060
40222040
60862082
(0060484000001!4080)
70462082
(6040282820009!6040)
B0828264
(2080626260000228)
(8040700000000226)
(608090A010004068)
(2480A00000002!2060)
(3!6040B82000006000)
42408040
62800040
68604080
26806046
46202084
60408280
40608620
80A00062
62604080
40224480
20826046
02600042
42408020
60446628
20A00284
(6000464000000000)
;
#SINGLE:BASIC:4:
00000000
00000000
8!80000000
A!20000000
30408042
40804062
60802046
40828020
60400020
40800040
80200064
06400080
20600080
60400020
40800028
02800026
40802060
40200040
60806020
80200062
60300048
40700028
20A0006!60
604!404080
40204060
00000040
60806020
00000080
20804020
00004060
00002080
00000020
60400080
80800040
80200062
06200080
20600080
20400082
00800208
00A00000
;
