#VERSION:0.82;
#TITLE:The Greatest;
#SUBTITLE:;
#ARTIST:Sia ft. Kendrick Lamar;
#TITLETRANSLIT:;
#SUBTITLETRANSLIT:;
#ARTISTTRANSLIT:;
#GENRE:Alternative Pop;
#ORIGIN:;
#CREDIT:;
#BANNER:The Greatest.png;
#BACKGROUND:The Greatest-bg.png;
#PREVIEWVID:;
#JACKET:jacket.png;
#CDIMAGE:;
#DISCIMAGE:;
#LYRICSPATH:;
#CDTITLE:;
#MUSIC:The Greatest.ogg;
#OFFSET:-0.010000;
#SAMPLESTART:39.624420;
#SAMPLELENGTH:13.714000;
#SELECTABLE:YES;
#BPMS:0.000=96.000;
#STOPS:;
#DELAYS:;
#WARPS:;
#TIMESIGNATURES:0.000=4=4;
#TICKCOUNTS:0.000=4;
#COMBOS:0.000=1;
#SPEEDS:0.000=1.000=0.000=0;
#SCROLLS:0.000=1.000;
#FAKES:;
#LABELS:0.000=Song Start;
#BGCHANGES:4.000=The Greatest.avi=1.000=0=0=1=====,
99999=-nosongbg-=1.000=0=0=0 // don't automatically add -songbackground-
;
#KEYSOUNDS:;
#ATTACKS:
;

//---------------dance-single - ----------------
#NOTEDATA:;
#CHARTNAME:;
#STEPSTYPE:dance-single;
#DESCRIPTION:;
#CHARTSTYLE:;
#DIFFICULTY:Hard;
#METER:8;
#RADARVALUES:0.470239,0.446827,0.278956,0.151433,0.338732,359.000000,35.000000,19.000000,0.000000,0.000000,0.000000,0.000000,0.000000,0.470239,0.446827,0.278956,0.151433,0.338732,359.000000,35.000000,19.000000,0.000000,0.000000,0.000000,0.000000,0.000000;
#CREDIT:Ben Speirs;
#NOTES:
0000
0000
0000
0000
,
0000
0000
0000
0000
,
0010
0000
0000
1000
0000
0000
0001
0000
0000
0000
0000
0010
0000
0000
1001
0000
,
0001
0000
0000
0100
0000
0000
0010
0000
0000
0000
0000
1000
0000
0000
0101
0000
,
0100
0000
0010
0000
1000
0000
0000
0000
0001
0000
0010
0001
0010
0000
0001
0000
,
1000
0010
0010
0000
1000
0100
0001
0100
,
1000
0000
0010
0000
0010
0000
0000
0000
0100
0000
0001
0100
0001
0000
1000
0000
,
0100
1000
1000
0000
0001
0100
1000
0100
,
0001
0000
0000
0100
0001
0000
0101
0000
1000
0000
0000
0100
1000
0000
1100
0000
,
0001
0000
0010
0000
0010
0000
0000
0000
0001
0000
1000
0000
0010
1000
0010
0000
,
1000
0000
0000
0100
1000
0000
1100
0000
0001
0000
0000
0001
0100
0000
0101
0000
,
1000
0000
0010
0000
0010
0000
0000
0000
1000
0000
0001
0000
0100
0001
0100
0000
,
0002
0000
0000
0010
0023
0000
0000
0000
0230
0000
0000
1000
2300
0000
0000
0000
,
3020
0000
0000
0100
0230
0000
0000
0000
0301
0000
0100
0000
1000
0000
0000
0000
,
0020
0000
0000
1000
2030
0000
0000
0000
3200
0000
0000
0010
0320
0000
0000
0000
,
0032
0000
0000
0103
0200
0000
0000
0000
0301
0000
0010
0000
1000
0000
0000
0000
,
1001
0000
0100
1000
0100
0000
1000
0000
0001
0000
0100
0001
0100
0000
0001
0000
,
1000
0000
0000
0010
0100
0000
0001
0000
1000
0000
0000
0001
0010
0000
0100
0000
,
1000
0000
0010
0100
0010
0000
1000
0000
0001
0000
1000
0100
1000
0000
0010
0000
,
0100
0000
0000
0001
1000
0000
0010
0100
0000
0100
0000
0000
0001
0000
0100
0010
,
0000
0010
0000
0000
1000
0000
0010
0100
0000
0100
0000
0000
0001
0000
1000
0001
,
1000
0000
0000
0100
1000
0000
0001
0000
0010
0100
0010
0000
0001
0000
1000
0010
,
0000
0010
0000
0000
1000
0000
0001
0010
0000
0010
0000
0000
0001
0000
1000
0001
,
1000
0000
0010
1000
0010
0000
1000
0000
0001
0100
0001
0000
2000
0000
0000
0000
,
3010
0000
1010
0000
1001
0000
0000
0000
1000
0000
0001
0000
0100
0010
1000
0000
,
0001
0000
0101
0000
1001
0000
0000
0000
1000
0000
0001
0000
0010
0001
0100
0000
,
0010
0000
0110
0000
1010
0000
0000
0000
0001
0000
1000
0000
0010
0100
0001
0000
,
1000
0000
1100
0000
0101
0000
0000
0000
0001
0000
1000
0000
0010
0100
0001
0000
,
1000
0000
0000
0100
0000
0000
1100
0000
0001
0000
0000
0100
0000
0000
0101
0000
,
1000
0000
0010
0000
0100
0000
0001
0000
1000
0000
0000
1001
0000
0000
0110
0000
,
0001
0000
0000
0100
0000
0000
0101
0000
1000
0000
0000
0100
0000
0000
1100
0000
,
0001
0000
1000
0000
0010
0000
0010
0000
0100
0000
0000
1001
0000
0000
0110
0000
,
1000
0000
0000
0010
1000
0000
0001
1000
0001
0000
0000
0010
0001
0000
1000
0000
,
0100
0000
0000
1000
0010
0000
0100
0000
0001
0000
1000
0001
1000
0000
0010
0000
,
1010
0000
0000
1000
0100
0000
0010
0000
0011
0000
0000
0001
0100
0000
0010
0000
,
1000
0000
0001
1000
0001
0000
0100
0000
0010
0000
1000
0100
1000
0000
0001
0000
,
0200
0000
0000
0000
0000
0010
0010
0000
0000
0000
0000
0000
0000
0010
0010
0000
,
0000
0000
0300
0000
0010
0100
0001
0101
,
1000
0000
0000
0100
1000
0000
0000
0000
0001
0000
0000
0100
0001
0000
0000
0000
,
1000
0000
0000
0010
1000
0000
0000
0000
0001
0000
1000
0000
0001
0000
0110
0000
,
1001
0000
1000
0100
0010
0000
0001
0000
1000
0000
0010
0100
0001
0000
1000
0001
,
2000
0000
0000
3010
0100
0000
0001
0000
1000
0000
0000
0001
0010
0000
0100
0000
,
1001
0000
0001
0010
0100
0000
1000
0000
0001
0000
0100
0010
1000
0000
0001
1000
,
0002
0000
0000
0103
0010
0000
1000
0100
0000
0100
0000
0000
1000
0000
0001
0100
,
0000
0100
0000
0000
0001
0000
1000
0010
0000
0010
0000
0000
0100
0000
0001
1000
,
0001
0000
0000
1000
0100
0000
0010
0000
0011
0000
0110
0000
1100
0000
0000
0000
,
0001
0000
0100
0010
1000
0000
0001
0000
0010
0000
0001
1000
0010
0000
0100
0000
,
0001
0000
1000
0100
0010
0000
0000
0000
0011
0000
0110
0000
1100
0000
0000
0000
,
0002
0203
0320
1030
;

//---------------dance-single - ----------------
#NOTEDATA:;
#CHARTNAME:;
#STEPSTYPE:dance-single;
#DESCRIPTION:;
#CHARTSTYLE:;
#DIFFICULTY:Challenge;
#METER:9;
#RADARVALUES:0.652415,0.621672,0.286926,0.055791,0.816941,530.000000,36.000000,7.000000,0.000000,0.000000,0.000000,0.000000,0.000000,0.652415,0.621672,0.286926,0.055791,0.816941,530.000000,36.000000,7.000000,0.000000,0.000000,0.000000,0.000000,0.000000;
#CREDIT:Ben Speirs;
#NOTES:
0000
0000
0000
0000
,
0000
0000
0000
0000
,
0001
0000
0100
0010
0000
0010
1000
0000
0100
0000
1000
0001
0000
0000
1001
0000
,
1000
0000
0010
0100
0000
0100
0001
0000
1000
0000
0100
0010
0000
0000
0110
0000
,
0001
0000
0010
0001
0100
0000
0010
0000
1000
0010
0100
0001
1000
0000
0001
1000
,
0001
0000
0100
0000
0100
0000
0010
0000
1010
0000
0110
0000
0010
1000
0001
0000
,
1000
0000
0100
1000
0010
0000
0100
0000
0001
0100
0010
1000
0001
0000
1000
0001
,
1000
0000
0010
0000
0010
0000
0100
0000
0101
0000
0110
0000
0100
0001
1000
0000
,
0010
1000
0010
0100
0100
0000
0101
0000
0010
1000
0100
0010
0001
1000
0001
0100
,
0000
0010
1000
0000
0001
0000
0010
0001
0100
0000
1100
0000
0010
0100
0001
0000
,
0100
0001
0100
0010
0010
0000
1010
0000
0100
0001
0010
0100
1000
0001
1000
0010
,
0000
0100
0001
0000
1000
0000
0100
1000
0010
0000
0011
0000
0100
0010
1000
0000
,
0020
0000
0000
0100
0000
0000
1000
0000
2030
0000
0000
0100
0000
0000
0001
0000
,
3002
0000
0000
0010
0000
0000
1003
0000
1001
0000
0110
0000
1001
0000
0000
0000
,
0002
0000
0000
0100
0000
0000
1000
0000
2003
0000
0000
0010
0000
0000
0100
0000
,
3200
0000
0000
0010
0000
0000
0310
0000
0001
0010
0100
1000
0010
0100
0001
1000
,
0010
0000
0100
0001
0100
0000
0010
1000
0001
0000
0010
0001
0010
0000
0001
1000
,
0100
0000
0000
0000
1000
0000
0010
0000
0100
0000
0001
0000
0000
0000
0000
0000
1000
0010
1000
0010
1000
0000
0000
0000
0001
0000
0000
0000
0101
0000
0000
0000
,
0100
0000
0010
1000
0010
0000
0100
0001
1000
0000
0100
1000
0100
0000
1000
0001
,
0010
0000
0001
0100
0010
1000
0001
0100
0010
0100
0010
0000
1000
0000
0010
0100
,
0001
0100
0001
0000
1000
0000
0001
0010
0100
0010
0100
0000
1000
0000
0100
0010
,
0001
0000
0000
0000
1000
0000
0010
0000
1000
0000
0001
0000
0100
0000
0000
0000
0001
1000
0001
1000
0001
0000
0000
0000
0100
0000
0000
0000
0100
0000
0001
0000
,
1000
0001
1000
0000
0001
0000
1000
0100
0010
0100
0010
0000
0001
0000
0010
0100
,
1000
0000
0000
0000
0001
0000
0100
0000
0001
0000
1000
0000
0010
0000
0000
0000
1000
0001
1000
0001
1000
0000
0000
0000
0010
0000
0000
0000
1000
0000
0100
0000
,
1100
0000
0001
0100
0001
0100
0010
0000
1000
0010
0100
0001
1000
0100
0010
0001
,
1000
0000
0010
0100
0010
0100
0001
0000
0100
0010
1000
0100
0010
0001
1000
0010
,
0100
0000
0001
0100
0001
0100
0110
0000
0010
1000
0100
0010
0001
1000
0010
0100
,
0001
0000
1000
0100
1000
0100
0110
0000
0010
0001
1000
0010
0100
0001
1000
0001
,
0100
0000
0000
1001
0000
1000
0100
0010
0001
0000
0000
1001
0000
0001
0010
0100
,
1000
1000
0010
0100
0001
0001
0100
0010
1000
0000
0000
1010
0000
1000
0100
0010
,
0001
0001
0000
0011
0000
0001
0010
0100
1000
0000
0000
1100
0000
1000
0010
0100
,
0001
0000
0000
0000
1000
0000
0010
0000
1000
0000
0000
0000
0001
0000
0010
0000
0001
0000
0000
0000
0000
0000
1001
0000
0000
0000
0000
0000
1000
0100
1000
0100
,
0010
0000
0001
0010
0100
0000
1100
0000
1000
0000
0010
0100
0001
0000
0101
0000
,
0100
0000
0010
1000
0001
0000
0010
0001
1000
0000
0100
1000
0001
0000
0100
0000
,
0010
1000
0010
1000
0100
0000
1000
0000
0001
0010
0001
0010
0100
0000
1000
0010
,
0100
0000
0001
1000
0001
0000
1000
0100
0010
0000
0001
1000
0001
0000
0100
0000
,
0110
0000
0000
0001
0100
0000
0000
0010
1000
0000
0000
0001
1000
0000
0000
0000
,
0001
0000
0000
0100
0001
0000
0000
0000
0101
0000
0110
0000
1010
0000
0000
0000
,
0010
0000
0000
1000
0100
0000
0000
1000
0001
0000
0000
0010
0001
0000
0000
0000
,
0100
0000
0000
0001
1000
0000
0000
0000
0010
0100
0010
0000
1000
0010
0100
0001
,
1000
0100
1000
0100
0010
0100
0010
0100
0010
0001
0010
0001
1000
0010
0100
0001
,
1000
0000
0001
0100
0001
0100
0010
0000
1000
0010
1000
0010
0100
0000
1001
0000
,
0001
0010
0001
0010
0100
0010
0100
0010
0100
1000
0100
1000
0001
0100
0010
1000
,
0001
0000
1000
0010
1000
0010
0100
0100
0001
0100
0010
1000
0001
0000
0010
0010
,
0001
1000
0010
0100
0001
0000
1000
1000
0100
1000
0010
0100
0001
0000
0010
0010
,
0001
0000
0100
0010
0100
0010
1000
0000
1001
0000
0110
0000
1001
0000
0000
0000
,
1000
0010
0100
0001
1000
1000
0100
1000
0010
0100
0001
1000
0001
0001
0010
0001
,
0100
0010
1000
0001
0010
0010
0001
0100
0010
0000
0110
0000
0101
0000
0000
0000
,
2010
0000
0000
0100
0100
0000
0000
0001
0001
0000
0000
0010
3010
0000
0000
0000
;

//---------------dance-double - ----------------
#NOTEDATA:;
#CHARTNAME:;
#STEPSTYPE:dance-double;
#DESCRIPTION:;
#CHARTSTYLE:;
#DIFFICULTY:Challenge;
#METER:9;
#RADARVALUES:0.642167,0.602245,0.270985,0.175344,0.725285,508.000000,34.000000,22.000000,0.000000,0.000000,0.000000,0.000000,0.000000,0.642167,0.602245,0.270985,0.175344,0.725285,508.000000,34.000000,22.000000,0.000000,0.000000,0.000000,0.000000,0.000000;
#CREDIT:Ben Speirs;
#NOTES:
00000000
00000000
00000000
00000000
,
00000000
00000000
00000000
00000000
,
00000001
00000000
00000100
00000010
00000000
00000010
00001000
00000000
00000100
00000000
00000010
00000001
00000000
00000000
00001100
00000000
,
00000100
00000000
00010000
00001000
00000000
00001000
00010000
00000000
00001000
00000000
00100000
00010000
00000000
00000000
00101000
00000000
,
00100000
00000000
00010000
10000000
00010000
00000000
01000000
00000000
00100000
10000000
00100000
10000000
00010000
00000000
00100000
00010000
,
01000000
00000000
00100000
01000000
00100000
00000000
01000000
00000000
01010000
00000000
00011000
00000000
00001000
00010000
00000100
00000000
,
00001000
00000000
00000010
00001000
00000010
00000000
00000100
00000000
00000001
00001000
00000001
00001000
00000001
00000000
00001000
00000100
,
00001000
00000000
00000001
00000100
00000001
00000000
00001000
00000000
00001010
00000000
00010100
00000000
00001000
00010000
00001000
00000000
,
00010000
00001000
00100000
00010000
00010000
00000000
11000000
00000000
00010000
01000000
00100000
10000000
00100000
00100000
01000000
00010000
,
10000000
01000000
00100000
00010000
10000000
00000000
00100000
00000000
01000000
00010000
00100000
00000000
00010000
00100000
00001000
00000000
,
00010000
00001000
00010000
00000100
00000100
00000000
00001000
00000000
00000010
00001000
00000100
00000010
00000001
00000100
00000010
00001000
,
00000001
00000010
00000100
00000010
00000001
00000000
00001000
00000000
00000010
00000100
00000010
00000000
00000100
00000001
00000100
00000000
,
00000020
00002030
00003200
00020300
,
00032000
00000000
00203000
00000000
00310000
01000000
00200000
00000000
,
10300000
00000000
00000000
00100000
00000000
00000000
10100000
00000000
00010000
00000000
00000000
00100000
00000000
00000000
00110000
00000000
,
01000000
00000000
00000000
01000000
00000000
00000000
01000000
00000000
00010000
10000000
00010000
00000000
10000000
01000000
00100000
00010000
,
01000000
00000000
00100000
01000000
00010000
00000000
00100000
00010000
00100000
00000000
00010000
00100000
00001000
00000000
00010000
00001000
,
00010000
00000000
00000000
00000000
00000100
00000000
00001000
00000000
00000010
00000000
00000100
00000000
00000001
00000000
00000000
00000000
00000100
00000010
00000100
00000010
00000100
00000000
00000000
00000000
00000001
00000000
00000000
00000000
00000100
00000000
00000000
00000000
,
00000010
00000000
00001000
00000100
00001000
00000000
00000100
00010000
00001000
00000000
00010000
00001000
00010000
00000000
00001000
00100000
,
00010000
00000000
00100000
00010000
10000000
00100000
01000000
01000000
00100000
10000000
01000000
00100000
00010000
00000000
10000000
10000000
,
01000000
10000000
00100000
01000000
00010000
00000000
00010000
00010000
01000000
00100000
10000000
00010000
10000000
00000000
01000000
10000000
,
00010000
00000000
00000000
00000000
00100000
00000000
00010000
00000000
01000000
00000000
00010000
00000000
00100000
00000000
00000000
00000000
00001000
00010000
00001000
00010000
00001000
00000000
00000000
00000000
00010000
00000000
00000000
00000000
00001000
00000000
00001000
00000000
,
00010000
00000100
00001000
00000010
00000100
00000000
00000010
00000010
00000100
00000001
00000010
00000100
00001000
00000000
00000001
00001000
,
00000001
00000000
00000000
00000000
00000100
00000000
00000010
00000000
00000100
00000000
00000010
00000000
00001000
00000000
00000000
00000000
00000001
00000100
00000001
00000100
00000001
00000000
00000000
00000000
00000100
00000000
00000000
00000000
00000010
00000000
00001000
00000000
,
00000100
00000000
00001100
00000000
00001001
00000000
00000010
00000000
00000001
00000010
00000100
00000000
00001000
00000010
00000100
00000000
,
00000010
00000000
00001010
00000000
00010100
00000000
00001000
00000000
00000100
00010000
00001000
00000000
00010000
00001000
00000100
00000010
,
00001000
00000000
00000100
00010000
00001000
00000000
00011000
00000000
00010000
00001000
00100000
00000000
00010000
00100000
01000000
00000000
,
10000000
00000000
01000000
10000000
00010000
00000000
01000000
00000000
00010000
01000000
10000000
01000000
00100000
10000000
01000000
00100000
,
00010000
00000000
00000000
11000000
00000000
10000000
01000000
00100000
00010000
00000000
00000000
01010000
00000000
00010000
01000000
00100000
,
10000000
10000000
00100000
01000000
00010000
00010000
00100000
00010000
01000000
00000000
00000000
10010000
00000000
10000000
01000000
00010000
,
00001000
00001000
00000000
00011000
00000000
00010000
00001000
00000100
00000001
00000000
00000000
00001001
00000000
00000000
00000001
00000100
,
00000001
00000000
00001000
00000100
00001000
00000000
00000001
00000010
00000100
00000000
00000000
00001001
00000000
00000000
00001000
00000000
,
00000010
00000100
00001000
00000100
00000010
00000000
00001010
00000000
00000010
00001000
00000100
00000010
00000001
00000000
00000011
00000000
,
00000001
00000010
00000100
00000010
00000001
00000000
00001100
00000000
00000100
00001000
00010000
00001000
00000100
00000000
00001100
00000000
,
00010000
00001000
00010000
00000100
00001000
00000000
00001100
00000000
00000100
00010000
00001000
00010000
00001000
00000000
00011000
00000000
,
00001000
00100000
00010000
00100000
00001000
00000000
00110000
00000000
00010000
10000000
01000000
10000000
00010000
00000000
01010000
00000000
,
20000000
30200000
00300020
00000032
,
00000203
00000000
02000300
00000000
10000000
10000000
13000000
00000000
,
20000000
32000000
03000200
00000302
,
00000023
00000000
00200030
00000000
10000000
10000000
10300000
00000000
,
00100000
10000000
00100000
10000000
01000000
00100000
01000000
00100000
00010000
01000000
00010000
01000000
00001000
00010000
00001000
00010000
,
00000100
00000000
00001000
00000010
00000100
00000001
00001000
00000000
00000001
00000010
00000100
00001000
00000010
00000000
00000100
00000000
,
00000001
00000100
00000001
00000100
00000010
00000100
00000010
00000100
00000010
00001000
00000010
00001000
00000100
00010000
00000100
00010000
,
00001000
00000000
00010000
00001000
00100000
00010000
01000000
01000000
00100000
10000000
00010000
00100000
01000000
00000000
00100000
00100000
,
00010000
01000000
00100000
10000000
00010000
00000000
10000000
10000000
01000000
10000000
00100000
01000000
00010000
00000000
00100000
00010000
,
01000000
00000000
00100000
10000000
01000000
00000000
00000000
00000000
10010000
00000000
00011000
00000000
00001001
00000000
00000000
00000000
,
00000001
00000100
00001000
00000100
00000010
00001000
00000100
00000000
00000010
00000001
00000010
00000100
00001000
00000001
00000100
00000000
,
00000010
00000100
00000010
00000100
00000001
00001000
00000010
00000000
00001001
00000000
00011000
00000000
10010000
00000000
00000000
00000000
,
20000000
00000000
00000000
00100000
30200000
00000000
00000000
00010000
00320000
00000000
00000000
00000000
00031000
00000000
00000000
00000000
;

//---------------dance-single - ----------------
#NOTEDATA:;
#CHARTNAME:;
#STEPSTYPE:dance-single;
#DESCRIPTION:;
#CHARTSTYLE:;
#DIFFICULTY:Medium;
#METER:5;
#RADARVALUES:0.313113,0.330263,0.087672,0.223164,0.023910,236.000000,11.000000,28.000000,0.000000,0.000000,0.000000,0.000000,0.000000,0.313113,0.330263,0.087672,0.223164,0.023910,236.000000,11.000000,28.000000,0.000000,0.000000,0.000000,0.000000,0.000000;
#CREDIT:Ben Speirs;
#NOTES:
0000
0000
0000
0000
,
0000
0000
0000
0000
,
0200
0000
0000
0010
0320
0000
0000
1000
,
2030
0000
0000
0001
3002
0000
0000
0010
,
0013
0001
1000
0000
0100
0000
0100
0000
,
1000
0010
0100
0000
0001
1000
0001
0000
,
1000
0100
0010
0000
0001
0000
1000
0000
,
0010
1000
0001
0000
1000
0100
1000
0000
,
0002
0000
0100
0000
0100
0003
0000
0000
0001
0000
0100
0000
0010
0000
0000
0000
,
1000
0100
0010
0000
0001
1000
0001
0000
,
2000
0100
3100
0000
1000
0010
0100
0000
,
0010
1000
0001
0000
1000
0001
0010
0000
,
0002
0003
0200
0300
,
0020
0000
0030
0000
1000
0001
1000
0000
,
2000
3000
0200
0300
,
0020
0000
0030
0000
0001
1000
0001
0100
,
0100
0000
0010
0000
0010
0000
1000
0000
1000
0000
0001
0000
0001
0000
0010
0001
,
0000
0000
1100
0000
0001
1000
0010
0100
,
0100
0000
0010
0000
0010
0000
1000
0000
1000
0000
0001
0000
0001
0000
1000
0100
,
0000
0000
1100
0000
0001
0010
0000
0000
,
0001
0100
0000
0000
0010
1000
0000
0000
,
1001
0000
1000
0000
0010
1000
0001
0000
,
1000
0100
0000
0000
1000
0010
0000
0000
,
0100
0001
1000
0000
0010
1000
0001
0000
,
2000
3200
1300
1000
,
0002
0000
0103
0000
0010
0010
0010
0100
,
0002
0000
0023
0000
0130
0010
0100
0000
,
2000
0000
3002
0000
0103
0100
0100
0000
,
0010
0000
0000
1000
1000
0000
0000
0001
,
0001
0000
0010
0001
,
1000
0000
0000
0010
0010
0000
0000
0100
,
0100
0000
0001
1000
,
0010
0000
0100
0100
0001
0000
0001
0001
,
1000
0000
0000
0000
1000
0000
0000
0000
0010
0000
0000
0100
0000
0000
0001
0000
,
1000
0000
1000
1000
0100
0000
0100
0100
,
0010
0000
0000
0000
0001
0000
0000
0000
1000
0000
0000
0010
0000
0000
0100
0000
,
0002
0003
2000
3000
,
0020
0000
0030
0000
0100
0010
0100
0000
,
0002
0003
2000
3000
,
0020
0000
0030
0000
0100
0100
0100
0001
,
1000
0000
0010
0000
0100
0000
0001
0000
1000
0000
0100
0000
0010
0000
0001
1000
,
0000
0000
1001
0000
1000
0001
0100
0010
,
0010
0000
0100
0000
0001
0000
0010
0000
0100
0000
1000
0000
0010
0000
1000
0100
,
0000
0000
1100
0001
0100
0000
0101
1000
,
0100
0000
1100
0001
0100
0000
0101
1000
,
1000
0000
0010
0000
1000
0001
0010
0000
,
0011
1000
1000
0000
1010
0001
0001
0000
,
0011
1000
1000
0000
0010
1000
0001
0000
,
0200
0320
2030
3001
;

//---------------dance-single - ----------------
#NOTEDATA:;
#CHARTNAME:;
#STEPSTYPE:dance-single;
#DESCRIPTION:;
#CHARTSTYLE:;
#DIFFICULTY:Easy;
#METER:3;
#RADARVALUES:0.175344,0.233127,0.023910,0.167373,0.000000,130.000000,3.000000,21.000000,0.000000,0.000000,0.000000,0.000000,0.000000,0.175344,0.233127,0.023910,0.167373,0.000000,130.000000,3.000000,21.000000,0.000000,0.000000,0.000000,0.000000,0.000000;
#CREDIT:Ben Speirs;
#NOTES:
// measure 0
0000
0000
0000
0000
,  // measure 1
0000
0000
0000
0000
,  // measure 2
0100
0000
0001
0000
,  // measure 3
1000
0000
0010
0000
,  // measure 4
1000
1000
0100
0000
,  // measure 5
1000
0000
0001
0000
,  // measure 6
0001
0001
0100
0000
,  // measure 7
0001
0000
1000
0000
,  // measure 8
0000
0010
0010
0000
0010
0000
0000
0000
,  // measure 9
0100
0000
0001
0000
,  // measure 10
0000
1000
1000
0000
1000
0000
0000
0000
,  // measure 11
0100
0000
1000
0000
,  // measure 12
0020
0030
0200
0300
,  // measure 13
0002
0000
0003
0000
1000
1000
1000
0000
,  // measure 14
2000
3000
0002
0003
,  // measure 15
0200
0000
0300
0000
0010
0010
0010
0000
,  // measure 16
0110
0001
0100
1000
,  // measure 17
0020
0030
1000
0000
,  // measure 18
1000
0100
0001
0010
,  // measure 19
0020
0030
0002
0003
,  // measure 20
2002
3003
2000
3000
,  // measure 21
0020
0030
0100
0100
,  // measure 22
0002
0003
2000
3000
,  // measure 23
0200
0300
0010
0010
,  // measure 24
0001
0100
0010
0010
,  // measure 25
1000
0100
0010
0000
,  // measure 26
0100
1000
0010
0010
,  // measure 27
0100
0001
0010
0000
,  // measure 28
0000
0000
0000
0001
0000
0000
0000
1000
,  // measure 29
0000
0000
0000
0010
0000
0000
0000
0010
,  // measure 30
0000
0000
0000
1000
0000
0000
0000
0001
,  // measure 31
0000
0000
0000
0100
0000
0000
0000
0100
,  // measure 32
0100
0000
0010
0000
,  // measure 33
1000
0000
0000
0000
0001
0000
0000
1000
,  // measure 34
1000
0000
0100
0000
,  // measure 35
0010
0000
0000
0000
0001
0000
0000
0100
,  // measure 36
0100
0000
0001
0000
,  // measure 37
1000
0000
0020
0030
,  // measure 38
1000
0000
0001
0000
,  // measure 39
0100
0000
0002
0003
,  // measure 40
1001
1000
0100
0001
,  // measure 41
0010
0000
0001
0000
,  // measure 42
0001
0001
0100
1000
,  // measure 43
0010
0000
2000
3000
,  // measure 44
0001
0001
1000
1000
,  // measure 45
0001
0000
0001
0000
0010
0010
0010
0000
,  // measure 46
0001
0001
1000
1000
,  // measure 47
0001
0000
0001
0000
0010
0010
0010
0000
,  // measure 48
0002
0003
2000
3000
;

//---------------dance-single - ----------------
#NOTEDATA:;
#CHARTNAME:;
#STEPSTYPE:dance-single;
#DESCRIPTION:;
#CHARTSTYLE:;
#DIFFICULTY:Beginner;
#METER:1;
#RADARVALUES:0.096781,0.154621,0.039851,0.000000,0.000000,80.000000,5.000000,0.000000,0.000000,0.000000,0.000000,0.000000,0.000000,0.096781,0.154621,0.039851,0.000000,0.000000,80.000000,5.000000,0.000000,0.000000,0.000000,0.000000,0.000000,0.000000;
#CREDIT:Ben Speirs;
#NOTES:
// measure 0
0000
0000
0000
0000
,  // measure 1
0000
0000
0000
0000
,  // measure 2
0001
0000
0000
0000
,  // measure 3
1000
0000
0000
0000
,  // measure 4
0100
0100
0000
0000
,  // measure 5
0100
0000
0000
0000
,  // measure 6
1000
1000
0000
0000
,  // measure 7
1000
0000
0000
0000
,  // measure 8
0010
0010
0000
0000
,  // measure 9
0100
0000
0100
0000
,  // measure 10
0001
0001
0000
0000
,  // measure 11
1000
0000
1000
0000
,  // measure 12
0010
0000
0000
0000
,  // measure 13
0100
0000
0100
0000
,  // measure 14
0001
0000
0000
0000
,  // measure 15
1000
0000
0000
0000
,  // measure 16
1001
0000
1000
0000
,  // measure 17
0010
0000
0000
0000
,  // measure 18
1000
0000
0001
0000
,  // measure 19
0001
0000
0000
0000
,  // measure 20
0110
0000
0100
0000
,  // measure 21
0001
0000
0000
0000
,  // measure 22
1000
0000
1000
0000
,  // measure 23
0100
0000
0000
0000
,  // measure 24
0000
1000
1000
0000
,  // measure 25
0000
0001
0001
0000
,  // measure 26
0000
0100
0100
0000
,  // measure 27
0000
0010
0010
0000
,  // measure 28
1001
0000
0000
0000
,  // measure 29
1000
0000
0001
0000
,  // measure 30
0100
0000
0000
0000
,  // measure 31
0001
0000
1000
0000
,  // measure 32
0100
0000
0100
0000
,  // measure 33
0100
0000
0010
0000
,  // measure 34
0001
0000
0001
0000
,  // measure 35
0001
0000
1000
0000
,  // measure 36
0010
0000
0000
0000
,  // measure 37
0000
0000
0100
0100
,  // measure 38
0100
0000
0000
0000
,  // measure 39
0000
0000
0001
0000
,  // measure 40
1001
0000
1000
0000
,  // measure 41
0010
0000
0000
0000
,  // measure 42
0100
0000
0100
0000
,  // measure 43
0001
0000
0000
0000
,  // measure 44
1000
1000
1000
0000
,  // measure 45
0001
0001
0001
0000
,  // measure 46
0100
0100
0100
0000
,  // measure 47
0010
0010
0010
0000
,  // measure 48
1001
0000
0100
0000
;
