#VERSION:0.82;
#TITLE:The Nights;
#SUBTITLE:;
#ARTIST:Avicii;
#TITLETRANSLIT:;
#SUBTITLETRANSLIT:;
#ARTISTTRANSLIT:;
#GENRE:;
#ORIGIN:;
#CREDIT:;
#BANNER:The Nights.png;
#BACKGROUND:The Nights-bg.png;
#PREVIEWVID:;
#JACKET:jacket.png;
#CDIMAGE:;
#DISCIMAGE:;
#LYRICSPATH:;
#CDTITLE:;
#MUSIC:The Nights.ogg;
#OFFSET:-1.430000;
#SAMPLESTART:61.422314;
#SAMPLELENGTH:13.714000;
#SELECTABLE:YES;
#BPMS:0.000=126.000;
#STOPS:;
#DELAYS:;
#WARPS:;
#TIMESIGNATURES:0.000=4=4;
#TICKCOUNTS:0.000=4;
#COMBOS:0.000=1;
#SPEEDS:0.000=1.000=0.000=0;
#SCROLLS:0.000=1.000;
#FAKES:;
#LABELS:0.000=Song Start;
#BGCHANGES:0.000=The Nights..avi=1.000=0=0=1=====,
99999=-nosongbg-=1.000=0=0=0 // don't automatically add -songbackground-
;
#KEYSOUNDS:;
#ATTACKS:
;

//---------------dance-single - ----------------
#NOTEDATA:;
#CHARTNAME:;
#STEPSTYPE:dance-single;
#DESCRIPTION:;
#CHARTSTYLE:;
#DIFFICULTY:Hard;
#METER:9;
#RADARVALUES:0.545228,0.613930,0.092090,0.153483,0.266036,349.000000,9.000000,15.000000,0.000000,0.000000,0.000000,0.000000,0.000000,0.545228,0.613930,0.092090,0.153483,0.266036,349.000000,9.000000,15.000000,0.000000,0.000000,0.000000,0.000000,0.000000;
#CREDIT:Ben Speirs;
#NOTES:
0000
0000
0000
0000
,
0000
0000
0000
0000
,
0000
0000
0000
0000
,
0000
0000
0000
0000
,
0010
0100
0010
0000
1000
0100
1000
0000
,
0001
0100
0001
0000
1000
0001
1000
0000
,
0010
0000
1000
0000
0100
0000
0010
0000
0001
0000
0000
0000
0100
0010
0100
0000
,
0002
0000
0000
0000
0000
1000
1003
0000
,
0010
1000
0010
1000
0001
1000
0001
1000
,
0100
0010
0100
0010
0001
0010
0001
0010
,
0001
0100
0010
1000
0100
0010
0001
1000
,
0020
0000
1030
0000
1001
0000
1000
0010
,
0100
0001
0100
0001
1000
0001
1000
0001
,
0010
0100
0010
0100
1000
0100
1000
0100
,
1000
0010
0100
0001
0010
0100
1000
0001
,
0200
0000
0000
0000
0000
0310
0010
0100
,
0002
0000
0000
0000
1003
0100
1000
0010
,
0200
0000
0000
0000
0000
0301
0010
0001
,
2000
0000
0000
3100
0020
0000
0000
0031
,
2000
0000
3002
0000
0203
0000
0310
1000
,
0200
0000
0310
0001
1000
1000
0010
1000
,
0002
0000
0000
0000
0000
0103
0100
0010
,
2000
0000
0000
3100
0020
0000
0000
0031
,
2000
0000
0000
3010
0100
0100
0001
1000
,
1001
0000
0100
1000
0010
0100
0001
1000
,
0010
0000
0101
0000
1100
0000
0010
0001
,
1000
0000
0100
1000
0001
0000
0100
0001
,
1000
1000
1010
0000
1001
0000
0100
0001
,
1000
0000
0100
0010
0001
0010
0100
1000
,
0001
0000
0110
0000
1001
1000
0010
0100
,
0001
0000
1000
0001
0100
0000
0010
1000
,
0100
0000
0000
0000
0010
0000
0001
0000
1000
0000
1000
0000
0010
0100
0010
0000
,
1000
0000
1000
0000
0100
0010
0001
0000
1000
0000
1000
0000
0010
0100
0001
0000
,
1000
0000
1000
0000
0001
0010
0100
0000
0010
0000
0010
0000
0001
1000
0010
0000
,
0100
0000
0100
0000
0001
1000
0100
0000
0010
0000
0010
0000
0001
1000
0010
0000
,
1000
0000
1000
0000
0001
0100
0010
0000
0100
0000
0100
0000
0010
1000
0100
0000
,
0010
0000
0010
0000
0001
1000
0010
0000
1000
0000
1000
0000
0100
0010
0001
0000
,
0100
0010
1000
0000
0100
0010
0001
0000
0100
0010
1000
0000
0100
0010
0001
0000
,
1000
0001
1000
0000
0010
0100
0010
0000
1000
0100
1000
0000
0001
0100
0001
0000
,
1000
0000
1000
0000
0010
0100
0010
0000
1000
0000
1000
0000
0100
0010
0100
0000
,
0010
0000
0001
0000
1000
0010
1000
0100
1000
0000
0010
0000
0100
0001
0100
0010
,
1000
0000
0001
0000
0010
0100
0010
0001
1000
0000
0010
0000
1000
0001
1000
0010
,
1000
0000
0100
0000
0010
0001
0010
0100
0010
0000
0001
0000
1000
0001
1000
0001
,
0100
0000
0010
0000
1000
0100
1000
0100
0010
0000
0001
0000
1000
0010
0100
0001
,
1000
0000
0001
0000
0010
0100
0010
0001
1000
0000
0001
0000
0100
0010
0100
0001
,
1000
0000
0001
0000
1000
0100
0010
0001
1000
0000
0001
0000
0100
0010
0100
0001
,
1000
0000
0100
0000
0010
0001
0010
0100
1000
0000
0001
0000
0100
0010
1000
0100
,
0010
0000
0001
0000
1000
0100
0010
0001
1000
0000
0010
0000
0100
0000
0001
0000
,
1100
0000
0000
0000
;

//---------------dance-single - ----------------
#NOTEDATA:;
#CHARTNAME:;
#STEPSTYPE:dance-single;
#DESCRIPTION:;
#CHARTSTYLE:;
#DIFFICULTY:Medium;
#METER:5;
#RADARVALUES:0.333276,0.391892,0.296733,0.235340,0.000000,176.000000,29.000000,23.000000,0.000000,0.000000,0.000000,0.000000,0.000000,0.333276,0.391892,0.296733,0.235340,0.000000,176.000000,29.000000,23.000000,0.000000,0.000000,0.000000,0.000000,0.000000;
#CREDIT:Ben Speirs;
#NOTES:
0000
0000
0000
0000
,
0000
0000
0000
0000
,
0000
0000
0000
0000
,
0000
0000
0000
0000
,
1000
0001
0100
0010
,
1000
0100
1000
0000
0001
0100
0001
0000
,
1000
0000
0100
0000
0010
0000
0001
1000
,
0020
0000
0000
0000
0000
0130
0100
0000
,
0110
1001
0100
1000
,
1100
0101
2002
3003
,
0010
1000
0010
0000
1000
0001
1000
0000
,
0002
0100
0103
0000
,
0101
1100
0001
1000
,
0010
0000
0100
0010
1000
0000
0000
0000
,
0100
1000
0100
0000
1000
0001
1000
0000
,
0002
0000
0003
0000
0000
0000
0100
0010
,
2000
3000
0100
1000
,
0002
0000
0003
0000
0100
0000
0010
1000
,
0200
0000
0300
0010
0020
0000
0030
0001
,
0002
2003
3020
0230
,
0302
0000
1003
0000
0100
1000
0010
0000
,
0200
0000
0300
0000
0000
0001
0001
0000
,
2000
3000
0002
0003
,
0200
0300
0010
0010
,
1001
0000
1000
0001
,
0100
0101
1100
0000
,
0001
0000
1000
0000
,
0010
1010
0011
0000
,
1000
0001
0010
0100
,
1000
1100
0101
1000
,
0001
0000
0100
0000
,
0010
1000
0001
0000
,
1000
0101
1000
0101
,
1000
0101
1000
0101
,
0010
1100
0010
1100
,
0010
1100
0010
1100
,
0001
1000
0001
0000
0100
0010
0100
0000
,
0001
1000
0001
0000
0010
0100
0010
0000
,
0002
2003
3020
0230
,
0302
0000
1000
1003
,
1100
0000
0001
0000
1000
0100
1000
0000
,
0010
0101
0101
1000
,
0001
0000
0010
0000
0100
0010
0001
0000
,
1000
1010
1010
0100
,
0010
0000
1000
0000
0100
0010
0001
0000
,
1000
0101
1100
0001
,
1000
0000
0010
0000
0100
0010
1000
0000
,
0001
0000
1000
0000
0100
0010
0100
0010
;

//---------------dance-single - ----------------
#NOTEDATA:;
#CHARTNAME:;
#STEPSTYPE:dance-single;
#DESCRIPTION:;
#CHARTSTYLE:;
#DIFFICULTY:Easy;
#METER:3;
#RADARVALUES:0.188564,0.220439,0.040929,0.122786,0.000000,113.000000,4.000000,12.000000,0.000000,0.000000,0.000000,0.000000,0.000000,0.188564,0.220439,0.040929,0.122786,0.000000,113.000000,4.000000,12.000000,0.000000,0.000000,0.000000,0.000000,0.000000;
#CREDIT:Ben Speirs;
#NOTES:
0000
0000
0000
0000
,
0000
0000
0000
0000
,
0000
0000
0000
0000
,
0000
0000
0000
0000
,
0100
0000
0001
0000
,
1000
1000
1000
0000
,
0100
0000
0010
0000
,
2002
0000
3003
0000
,
0010
0010
1000
1000
,
0001
0001
0001
0000
,
0100
0001
1000
0100
,
0100
0000
0000
0000
,
1000
1000
0001
0001
,
0010
0010
0010
0000
,
0001
0100
0010
1000
,
0001
0000
0000
0000
,
2000
3000
0100
0000
,
0020
0030
0001
0000
,
0200
0300
0002
0003
,
2000
0000
3000
0000
,
0020
0030
1000
0000
,
0200
0300
0010
0000
,
0002
0003
2000
3000
,
0020
0000
0030
0000
,
1001
0000
0100
0000
,
0010
1000
1000
0000
,
0100
0000
1000
0000
,
0001
0100
0100
0000
,
0010
0000
1000
0000
,
0100
0010
0010
0000
,
0001
0000
1000
0000
,
0010
0000
0000
0000
0100
0100
0000
0000
,
1001
0100
0001
0000
,
0100
0001
1000
0000
,
0100
1000
0010
0000
,
1000
0010
0100
0000
,
0010
0100
0001
0000
,
1000
1000
0001
0001
,
0100
0000
0010
0000
,
1000
0000
0001
0000
,
0110
0000
0001
0010
,
0001
0000
0100
0010
,
1000
0000
0100
1000
,
0100
0000
1000
0001
,
0100
0000
0010
1000
,
0010
0000
0100
0001
,
1000
0000
0100
0000
,
0010
0000
0000
0000
0001
0000
1000
1000
;

//---------------dance-single - ----------------
#NOTEDATA:;
#CHARTNAME:;
#STEPSTYPE:dance-single;
#DESCRIPTION:;
#CHARTSTYLE:;
#DIFFICULTY:Beginner;
#METER:1;
#RADARVALUES:0.105245,0.146576,0.051161,0.000000,0.000000,67.000000,5.000000,0.000000,0.000000,0.000000,0.000000,0.000000,0.000000,0.105245,0.146576,0.051161,0.000000,0.000000,67.000000,5.000000,0.000000,0.000000,0.000000,0.000000,0.000000,0.000000;
#CREDIT:Ben Speirs;
#NOTES:
0000
0000
0000
0000
,
0000
0000
0000
0000
,
0000
0000
0000
0000
,
0000
0000
0000
0000
,
0100
0000
0000
0000
,
0100
0000
0000
0000
,
0001
0000
1000
0000
,
0010
0000
0000
0000
,
1001
0000
0000
0000
,
1000
1000
1000
0000
,
0100
0000
0100
0000
,
0100
0000
0000
0000
,
1001
0000
0000
0000
,
0001
0001
0001
0000
,
0100
0000
0100
0000
,
0010
0000
0000
0000
,
0110
0000
0000
0000
,
1000
0000
0000
0000
,
0001
0000
0001
0000
,
0001
0000
0000
0000
,
0010
0000
0000
0000
,
0100
0000
0000
0000
,
1000
0000
1000
0000
,
1000
0000
0000
0000
,
1001
0000
0000
0000
,
0000
0010
0010
0000
,
0000
0000
0000
0000
,
0000
1000
1000
0000
,
0000
0000
0000
0000
,
0000
0001
0001
0000
,
0000
0000
0000
0000
,
0000
0000
0000
0000
,
0100
0000
0100
0000
,
0010
0000
0010
0000
,
1000
0000
1000
0000
,
0001
0000
0001
0000
,
0010
0000
0010
0000
,
0100
0000
0100
0000
,
1000
0000
1000
0000
,
0001
0000
0000
0000
,
0110
0000
0000
0000
,
1000
1000
1000
0000
,
0100
0000
0000
0000
,
0010
0010
0010
0000
,
0001
0000
0000
0000
,
1000
1000
1000
0000
,
0001
0000
0000
0000
,
0100
0000
0010
0010
;

//---------------dance-double - ----------------
#NOTEDATA:;
#CHARTNAME:;
#STEPSTYPE:dance-double;
#DESCRIPTION:;
#CHARTSTYLE:;
#DIFFICULTY:Challenge;
#METER:8;
#RADARVALUES:0.491144,0.589373,0.102322,0.225108,0.148366,304.000000,10.000000,22.000000,0.000000,0.000000,0.000000,0.000000,0.000000,0.491144,0.589373,0.102322,0.225108,0.148366,304.000000,10.000000,22.000000,0.000000,0.000000,0.000000,0.000000,0.000000;
#CREDIT:Ben Speirs;
#NOTES:
// measure 0
00000000
00000000
00000000
00000000
,  // measure 1
00000000
00000000
00000000
00000000
,  // measure 2
00000000
00000000
00000000
00000000
,  // measure 3
00000000
00000000
00000000
00000000
,  // measure 4
00001000
00010000
00001000
00000100
00001000
00010000
00001000
00000000
,  // measure 5
00010000
00001000
00010000
01000000
00010000
00001000
00010000
00000000
,  // measure 6
00001000
00000000
00100000
00000000
00010000
00000000
00000000
00000000
00100000
00000000
00000000
00000000
00001000
00010000
00001000
00000000
,  // measure 7
00020000
00000000
00000100
00031000
,  // measure 8
00010000
00000100
00000010
00000001
00000100
00000010
00000100
00000010
,  // measure 9
00001000
00000100
00010000
00001000
00100000
00010000
01000000
00000000
,  // measure 10
00100000
10000000
00100000
10000000
00010000
01000000
00010000
01000000
,  // measure 11
00100000
10000000
01000000
00100000
00010000
10000000
00010000
00000000
,  // measure 12
10000000
01000000
00010000
00000000
00001000
00000100
00000001
00000000
,  // measure 13
00000010
00000000
00000000
00000010
00000001
00000000
00000100
00000000
00000010
00000000
00001000
00000000
00000100
00000000
00000000
00000000
,  // measure 14
00010000
00010000
00000100
00001000
00000010
00000010
00000100
00000001
,  // measure 15
00002000
00000000
00003000
00000000
,  // measure 16
00001002
00000000
00000100
00000010
,  // measure 17
00020003
00000000
00000000
00000000
00031000
00000000
00000100
00010000
,  // measure 18
00002000
00000000
00000000
00103000
00020000
00000000
00000000
00000000
,  // measure 19
02030000
03200000
20300000
30010000
,  // measure 20
20010000
00000000
31000000
00000000
00020000
00000000
10030000
00010000
,  // measure 21
02000000
00000000
03000000
00000000
00000000
00000000
00010000
00100000
,  // measure 22
00002000
00003000
00020000
00030000
,  // measure 23
00000200
00000000
00000300
00000000
00001000
00000000
00000010
00001000
,  // measure 24
00000002
00000100
00000010
00001000
,  // measure 25
00000103
00000000
00000101
00000000
00001100
00000000
00001000
00000100
,  // measure 26
00000020
00000000
00000031
00001000
00000020
00000000
00000130
00000001
,  // measure 27
00001000
00001000
00001100
00000000
00010100
00000000
00001000
00100000
,  // measure 28
00020000
00000000
00130000
00010000
01000000
00100000
10000000
00010000
,  // measure 29
01000000
00000000
10010000
00000000
10010000
00000000
10000000
00010000
,  // measure 30
00200000
00000000
00310000
10000000
00200000
00000000
01300000
00010000
,  // measure 31
00200000
00000000
00000000
00000000
00301000
00000000
00000000
00000000
00010000
00000000
00000000
00000000
00001000
00010000
00001000
00000000
,  // measure 32
00010000
00000000
00010000
00000000
00000100
00001000
00000100
00000000
00001000
00000000
00001000
00000000
00000010
00000100
00000010
00000000
,  // measure 33
00000100
00000000
00000100
00000000
00000001
00000010
00000001
00000000
00000010
00000000
00000010
00000000
00000100
00000010
00000100
00000000
,  // measure 34
00001000
00000000
00001000
00000000
00000100
00010000
00000100
00000000
00010000
00000000
00010000
00000000
00001000
00100000
00001000
00000000
,  // measure 35
00100000
00000000
00100000
00000000
00010000
01000000
00010000
00000000
01000000
00000000
01000000
00000000
00100000
10000000
00100000
00000000
,  // measure 36
10000000
00000000
10000000
00000000
00010000
00100000
00010000
00000000
01000000
00000000
01000000
00000000
00010000
10000000
00010000
00000000
,  // measure 37
10000000
01000000
10000000
00000000
00010000
01000000
00010000
00000000
10000000
01000000
10000000
00000000
00010000
00100000
00010000
00000000
,  // measure 38
10000000
00100000
10000000
00000000
00010000
00100000
00010000
00000000
10000000
00000000
10000000
00000000
00100000
01000000
00100000
00000000
,  // measure 39
10000000
00000000
10000000
00000000
00010000
00100000
00010000
00000000
01000000
00000000
01000000
00000000
00010000
00000000
00100000
00000000
,  // measure 40
00101000
00100000
00001000
00010000
00000100
00001000
00000010
00000100
,  // measure 41
00000001
00000010
00001000
00010000
00100000
10000000
01000000
00100000
,  // measure 42
00010000
10000000
00010000
00000000
10000000
00000000
00100000
00000000
01000000
00100000
01000000
00000000
00010000
00000000
00100000
00000000
,  // measure 43
00001000
00100000
00001000
00000000
00010000
00000000
00000100
00000000
00001000
00000010
00001000
00000000
00000001
00000000
00000010
00000000
,  // measure 44
00000001
00000100
00000010
00001000
00000100
00000010
00000001
00000100
,  // measure 45
00001000
00000100
00001000
00000000
00000100
00000000
00000010
00000000
00001000
00000100
00001000
00000000
00000010
00000000
00000100
00000000
,  // measure 46
00000001
00001000
00000001
00000000
00000010
00000000
00000001
00000000
00001000
00000000
00000100
00000000
00010000
00000000
00001000
00000000
,  // measure 47
00100000
00000000
00010000
00000000
01000000
00000000
00100000
00000000
10000000
00100000
10000000
00000000
00010000
00000000
01000000
00000000
,  // measure 48
10010000
00000000
00000000
00000000
;
