#VERSION:0.82;
#TITLE:You Don't Know Me;
#SUBTITLE:;
#ARTIST:Jax Jones feat. RAYE;
#TITLETRANSLIT:;
#SUBTITLETRANSLIT:;
#ARTISTTRANSLIT:;
#GENRE:Pop;
#ORIGIN:;
#CREDIT:;
#BANNER:You Don't Know Me.png;
#BACKGROUND:You Don't Know Me-bg.png;
#PREVIEWVID:;
#JACKET:jacket.png;
#CDIMAGE:;
#DISCIMAGE:;
#LYRICSPATH:;
#CDTITLE:;
#MUSIC:You Don't Know Me.ogg;
#OFFSET:-0.010000;
#SAMPLESTART:108.384132;
#SAMPLELENGTH:13.714000;
#SELECTABLE:YES;
#BPMS:0.000=124.000;
#STOPS:;
#DELAYS:;
#WARPS:;
#TIMESIGNATURES:0.000=4=4;
#TICKCOUNTS:0.000=4;
#COMBOS:0.000=1;
#SPEEDS:0.000=1.000=0.000=0;
#SCROLLS:0.000=1.000;
#FAKES:;
#LABELS:0.000=Song Start;
#BGCHANGES:4.000=You Don't Know Me.avi=1.000=0=0=1=====,
99999=-nosongbg-=1.000=0=0=0 // don't automatically add -songbackground-
;
#KEYSOUNDS:;
#ATTACKS:
;

//---------------dance-single - ----------------
#NOTEDATA:;
#CHARTNAME:;
#STEPSTYPE:dance-single;
#DESCRIPTION:;
#CHARTSTYLE:;
#DIFFICULTY:Hard;
#METER:8;
#RADARVALUES:0.477804,0.558434,0.261299,0.134383,0.194108,395.000000,35.000000,18.000000,0.000000,0.000000,0.000000,0.000000,0.000000,0.477804,0.558434,0.261299,0.134383,0.194108,395.000000,35.000000,18.000000,0.000000,0.000000,0.000000,0.000000,0.000000;
#CREDIT:Ben Speirs;
#NOTES:
0000
0000
0000
0000
,
0000
0000
0000
0000
,
0000
0000
0000
0000
,
0000
0000
0000
0000
,
0002
0000
0100
0100
1003
0000
0000
0000
,
1000
0100
0010
0000
0001
1000
0010
0000
,
2000
0000
0100
0100
3001
0000
0000
0000
,
0001
0100
0001
0000
1000
0000
0000
0000
0000
0000
0000
0000
0000
0000
0000
0000
,
0010
0000
0000
0010
0000
0000
1000
0000
0001
0000
0000
0000
0000
0000
0000
0000
,
0010
0000
0001
0000
0010
0001
1000
0001
,
0100
0000
0000
0100
0000
0000
0010
0000
1000
0000
0000
0000
0000
0000
0000
0000
,
0001
0000
1000
0000
0010
0100
0010
1000
,
0100
0000
0000
0100
0000
0000
0010
0000
0001
0000
0000
0000
0000
0000
0000
0000
,
0010
0001
0100
0000
0010
1000
0100
0000
,
1000
0000
0000
0001
0000
0000
1000
0000
0010
0000
0000
0000
0000
0000
0000
0000
,
1000
0001
0100
0000
0001
0010
0100
0000
,
1000
1100
0001
1001
,
1000
0100
0010
0000
0001
1000
0010
0100
,
0001
0101
1000
1001
,
1000
0010
0100
0000
0001
1000
0010
0100
,
0002
0000
0103
0010
2000
0000
3100
0000
,
1000
0001
1000
0010
0100
0100
0010
1000
,
0200
0000
0310
0001
0200
0000
0310
0000
,
0100
0001
1000
0000
0010
1000
0001
0000
,
1000
1100
0001
0101
,
1000
1010
0001
0011
,
2002
0000
0000
3003
,
1001
0010
1001
1001
,
1000
0100
0010
0001
0200
0000
0310
0000
,
0100
0000
0001
0000
1000
0000
0001
0100
0000
0000
0001
0000
0010
0000
0100
1000
,
0000
0001
0100
0100
2001
0000
3010
0000
,
1000
0000
0100
0000
1000
0000
0001
0100
0000
0000
0010
0000
0100
0000
0001
1000
,
0001
0000
1100
0101
2001
0000
3010
0000
,
1000
0000
0010
0000
0100
0000
0001
1000
0000
0000
0001
0000
0010
0000
0100
1000
,
0000
0001
0100
0100
0120
0000
1030
0000
,
0001
1000
0001
0000
2000
0000
0000
0000
3010
0000
1000
0000
0001
0000
0000
0000
,
2010
0000
0001
0100
3010
0000
0000
0000
,
1000
0000
0001
0000
1000
0000
0010
0100
0000
0000
0001
0000
1000
0000
0001
1000
,
0000
0001
0010
0010
0100
1000
0001
0000
,
1000
0000
0010
0000
0100
0000
0010
0100
0010
0000
0100
0000
0001
0000
0010
0000
,
0001
0000
0011
0110
1100
0000
0000
0000
,
0100
0000
1000
0000
0001
0000
1000
0001
1000
0000
0010
0000
0100
0000
0001
1000
,
0001
0000
0100
0100
0001
1000
0010
0000
,
1000
0100
1000
0000
0001
0000
0000
0000
0101
0000
0000
0000
1010
0000
0000
0000
,
0001
0000
0000
1000
0000
0000
0001
0000
0100
0000
0000
0000
0000
0000
0000
0000
,
0001
0000
0000
0010
0000
0000
0100
0000
1000
0000
0000
0000
0001
0000
0000
0000
,
1000
0000
0000
0010
0000
0000
0100
0000
0010
0000
0000
0000
0000
0000
0000
0000
,
1000
0000
0000
0100
0000
0000
0010
0000
0001
0000
0001
0000
1000
0000
1000
0000
,
0010
0000
0000
0100
0010
0000
0100
0000
0001
0000
0000
0100
0001
0000
0100
0000
,
0010
0000
0000
1000
0010
0000
1000
0000
0100
0000
0000
1000
0100
0000
1000
0000
,
0001
0100
0001
0100
0010
0000
1000
1000
,
0100
0000
0010
0010
0001
0000
1001
0000
,
0001
0000
0100
0000
0001
0000
0100
0010
0000
0100
0010
0000
0100
0000
0100
0000
,
0010
0000
1000
0000
0010
0000
1000
0100
0000
1000
0100
0000
1000
0000
0100
0000
,
1000
0001
0000
1000
0001
0000
0100
0001
0000
1000
0001
0000
1000
0000
0001
0000
,
0100
0010
0100
0010
0100
0000
0000
0000
0010
0000
0000
0000
0110
0000
0000
0000
,
2001
0000
0010
0100
3001
0000
1000
0000
,
0001
0000
0100
0000
0010
0000
1000
0100
1000
0000
0010
0000
0100
0000
0001
0100
,
0001
0000
0102
0010
0013
0000
0001
0000
,
0010
0000
0001
0000
1000
0000
0010
0100
0010
0000
1000
0000
0001
0000
0010
0100
,
0010
0000
1100
0110
1002
0000
0103
0000
,
0001
0000
0100
0000
0010
0000
1000
0100
1000
0000
0010
0000
0100
0000
0001
1000
,
0001
0000
0100
0100
0001
1000
0010
0000
,
1000
0001
1000
0000
0001
0000
0000
0000
1100
0000
0000
0000
0101
0000
0000
0000
,
1000
0000
0000
0001
0000
0000
0100
0010
0100
0000
0000
0001
0000
0000
1000
0000
,
0100
0000
0000
0010
0000
0000
0001
0000
0200
0000
0000
0000
0310
0000
0100
0001
,
0100
0000
0000
0001
0000
0000
1000
0100
1000
0000
0000
0001
0000
0000
0010
0000
,
0001
1000
0001
0000
1000
0000
0000
0000
1100
0000
0000
0000
0101
0000
0010
0000
,
1001
0000
0000
0000
;

//---------------dance-double - ----------------
#NOTEDATA:;
#CHARTNAME:;
#STEPSTYPE:dance-double;
#DESCRIPTION:;
#CHARTSTYLE:;
#DIFFICULTY:Challenge;
#METER:8;
#RADARVALUES:0.472472,0.557407,0.216505,0.231437,0.123184,383.000000,29.000000,31.000000,0.000000,0.000000,0.000000,0.000000,0.000000,0.472472,0.557407,0.216505,0.231437,0.123184,383.000000,29.000000,31.000000,0.000000,0.000000,0.000000,0.000000,0.000000;
#CREDIT:Ben Speirs;
#NOTES:
00000000
00000000
00000000
00000000
,
00000000
00000000
00000000
00000000
,
00000000
00000000
00000000
00000000
,
00000000
00000000
00000000
00000000
,
00200000
00000000
00010000
00010000
00301000
00000000
00000000
00000000
,
00100000
00010000
00100000
00000000
00001000
00100000
00001000
00000000
,
00020000
00000000
00001000
00000100
00030100
00000000
00000000
00000000
,
00010000
00001000
00010000
00000000
00001000
00000000
00000000
00000000
00000000
00000000
00000000
00000000
00000000
00000000
00000000
00000000
,
00101000
00000000
00000000
00100000
00000000
00000000
00010000
00000000
02000000
00000000
00000000
00000000
03000000
00000000
00000000
00000000
,
00100000
10000000
00100000
10000000
01000000
00100000
00010000
00000000
,
01000000
00000000
00000000
01000000
00000000
00000000
00010000
00000000
00200000
00000000
00000000
00000000
00300000
00000000
00000000
00000000
,
00001000
00100000
00010000
00100000
00001000
00010000
00000100
00001000
,
00000010
00000000
00000000
00000010
00000000
00000000
00000100
00000000
00000002
00000000
00000000
00000000
00000003
00000000
00000000
00000000
,
00000100
00000001
00000100
00000010
00001000
00001000
00000100
00010000
,
00001000
00000000
00000000
00001000
00000000
00000000
00010000
00000000
00000200
00000000
00000000
00000000
00000300
00000000
00000000
00000000
,
00001000
00000100
00010000
00000000
00001000
00100000
00010000
00000000
,
00100000
00000000
00101000
00100000
00010000
00000000
10010000
00000000
,
10000000
00100000
01000000
00010000
10000000
10000000
01000000
00000000
,
00100000
00110000
00001000
00101000
,
00001000
00010000
00010000
00000100
00001000
00001000
00000010
00000100
,
00000001
00000000
00000101
00000100
00000010
00000000
00001010
00000000
,
00000001
00001000
00000001
00000010
00000100
00001000
00000001
00001000
,
00000020
00000000
00000130
00000010
00002000
00000000
00003100
00000000
,
00001000
00000100
00010000
00000000
00001000
00100000
00010000
00000000
,
00200000
01000000
00010000
00001000
,
00302000
00000100
00010000
00100000
,
00020000
00000000
00000000
00033000
,
00022000
00033000
00011000
00011000
,
00010100
00000000
00001000
00000100
00020000
00000000
00031000
00000000
,
00010000
00000000
00001000
00000000
00100000
00000000
00010000
00100000
00000000
00000000
00010000
00000000
10000000
00000000
00100000
01000000
,
00000000
00100000
10000000
10000000
02000000
00000000
13000000
00000000
,
00100000
10000000
00010000
00000000
00100000
00010000
01000000
00001000
,
00020000
00000000
00000100
00001000
00031000
00000000
00011000
00000000
,
00010000
00001000
00000200
00000000
00000310
00001000
00000100
00000010
,
00000001
00000000
00001000
00001000
00000200
00000000
00001300
00000000
,
00000001
00001000
00000001
00000000
00002000
00000000
00000000
00000000
00003010
00000000
00000000
00000000
00001001
00000000
00000000
00000000
,
00000001
00000000
00000000
00000100
00000000
00000000
00000010
00000000
00002000
00000000
00000000
00000000
00003100
00000000
00000000
00000000
,
00001000
00000000
00000001
00000000
00001000
00000000
00000010
00000100
00000010
00000000
00001000
00000000
00000001
00000000
00000010
00000100
,
00000010
00000000
00000001
00000010
00001000
00010000
00200000
00000000
,
10300000
00000000
01000000
00000000
10000000
00000000
00010000
01000000
00000000
00000000
00100000
00000000
00100000
00000000
01000000
00000000
,
00010000
00000000
01010000
00001000
00020000
00000000
00030100
00000000
,
00010000
00000000
00001000
00000000
00100000
00000000
00010000
00100000
00010000
00000000
00100000
00000000
00001000
00000000
00010000
00000000
,
00000200
00000000
00000010
00000010
00000310
00000100
00001000
00000000
,
00000001
00001000
00000001
00000000
00001000
00000000
00000000
00000000
00001010
00000000
00000000
00000000
00000101
00000000
00000000
00000000
,
00000001
00000000
00000000
00001000
00000000
00000000
00000010
00000000
00000200
00000000
00000000
00000000
00000300
00000000
00000000
00000000
,
00000001
00000000
00000000
00000100
00000000
00000000
00000010
00000000
00001000
00000000
00001000
00000000
00000100
00000000
00000100
00000000
,
00010000
00000000
00000000
00001000
00000000
00000000
00100000
00000000
00020000
00000000
00000000
00000000
00030000
00000000
00000000
00000000
,
00100000
00000000
00010000
00100000
00101000
00000000
00011000
00000000
,
01010000
00000000
10000000
01000000
10000000
00000000
00010000
01000000
,
00010000
00000000
10000000
00100000
10000000
00000000
00010000
00100000
,
00001000
00000000
00100000
00001000
00010000
00000000
00000100
00001000
,
00000010
00000000
00000100
00000001
00000010
00000000
00001001
00000000
,
00000001
00000000
00000100
00000000
00000001
00000000
00000100
00000010
00000000
00000100
00000010
00000000
00000100
00000000
00000010
00000000
,
00001000
00000000
00000100
00000000
00001000
00000000
00000100
00010000
00000000
00001000
00010000
00000000
00001000
00000000
00010000
00000000
,
00001000
00100000
00000000
00001000
00100000
00000000
00010000
00100000
00000000
00010000
00100000
00000000
00010000
00000000
10000000
00000000
,
00010000
10000000
00010000
10000000
00010000
00000000
00000000
00000000
00100000
00000000
00000000
00000000
10010000
00000000
00000000
00000000
,
11000000
00000000
10000000
00000000
00100000
01000000
00100000
00000000
20000000
00000000
00000000
00000000
30010000
00000000
00000000
00000000
,
10000000
00000000
01000000
00000000
00100000
00000000
00010000
01000000
00010000
00000000
00100000
00000000
00001000
00000000
00010000
00000000
,
00000200
00000000
00001000
00010000
00010300
00000000
00010100
00000000
,
00010000
00000000
00001000
00000000
00100000
00000000
00010000
00100000
00010000
00000000
00100000
00000000
00001000
00000000
00010000
00000000
,
00000100
00000000
00010100
00011000
00010200
00000000
00000300
00000000
,
00001000
00000000
00000010
00000000
00000100
00000000
00000001
00001000
00000001
00000000
00001000
00000000
00000010
00000000
00000100
00000000
,
00000100
00000000
00000101
00000010
00002000
00000000
00003001
00000000
,
00001000
00000100
00001000
00000000
00000001
00000000
00000000
00000000
00001000
00000000
00000000
00000000
00010100
00000000
00000000
00000000
,
00001001
00000000
00001000
00000010
00000100
00000000
00000100
00000001
,
00000010
00000000
00000010
00000100
00002000
00000000
00003001
00000000
,
00001000
00000000
00000100
00010000
00001000
00000000
00100000
00000000
,
00001000
00010000
00001000
00000000
00020000
00000000
00000000
00000000
00031000
00000000
00100000
00000000
00010000
00000000
01000000
00000000
;

//---------------dance-single - ----------------
#NOTEDATA:;
#CHARTNAME:;
#STEPSTYPE:dance-single;
#DESCRIPTION:;
#CHARTSTYLE:;
#DIFFICULTY:Medium;
#METER:5;
#RADARVALUES:0.289029,0.404641,0.149314,0.119451,0.000000,235.000000,20.000000,16.000000,0.000000,0.000000,0.000000,0.000000,0.000000,0.289029,0.404641,0.149314,0.119451,0.000000,235.000000,20.000000,16.000000,0.000000,0.000000,0.000000,0.000000,0.000000;
#CREDIT:Ben Speirs;
#NOTES:
0000
0000
0000
0000
,
0000
0000
0000
0000
,
0000
0000
0000
0000
,
0000
0000
0000
0000
,
2000
0000
3010
0010
0020
0000
0030
0000
,
1000
0001
0010
0010
,
0001
0000
0100
0100
0100
0000
0000
0000
,
0010
1000
0001
0000
0000
0000
0000
0000
,
1100
0100
1000
0000
,
0001
1000
0010
0010
,
0100
0100
0001
0000
,
0100
0001
1000
1000
,
0010
1000
0001
0000
,
0010
0010
0001
1000
,
0100
0100
1000
0000
,
0001
1000
0010
0000
,
1000
1001
0000
1001
,
0000
0001
1000
0010
,
0000
1010
0000
1010
,
0000
1000
0100
0010
,
0000
0011
0000
0011
,
0000
0001
1000
0010
,
0200
0300
0010
0010
,
1000
0001
1000
0000
,
0002
0010
0000
0010
,
0000
0100
0000
0100
,
1000
1000
0000
1000
,
0100
1000
0100
0103
,
1001
0000
1000
0100
0010
0000
0000
0000
,
0001
1000
0010
0100
,
0100
0000
0001
0100
0010
0000
0000
0000
,
0100
0001
1000
1000
,
0001
0000
1000
0010
0100
0000
0000
0000
,
0010
0010
1000
0001
,
1000
0000
0100
0010
0001
0000
0000
0000
,
0100
0100
0100
0000
0010
0000
0000
0000
,
1001
0000
1000
0100
0100
0000
0000
0000
,
1000
0000
0001
0000
1000
0000
0010
1000
,
0001
0000
0100
0010
0010
0000
0000
0000
,
0100
0000
0001
0000
1000
0000
0100
0010
,
0001
0000
0100
0010
0010
0000
0000
0000
,
0100
0000
0001
0000
1000
0000
0010
1000
,
0100
0000
1000
0010
0010
0000
0000
0000
,
0100
0100
0100
0000
0001
0000
0000
0000
,
2002
3003
2000
3000
,
0010
0100
0010
0010
,
2000
3000
0002
0003
,
0020
0030
0100
0200
,
0300
0000
1000
0100
0000
0000
1000
0001
,
0000
0000
0001
0100
0000
0000
0001
1000
,
0000
0000
0010
0010
0000
0000
0010
0010
,
0000
0000
0100
0100
0100
0000
1001
0000
,
2000
0100
0100
3100
,
0002
0100
0100
0103
,
2001
3010
1002
0013
,
1001
0000
0110
1001
,
1001
0000
1000
0001
0100
0000
0000
0000
,
0001
0000
1000
0000
0010
0000
1000
0100
,
0010
0000
0100
0100
1000
0000
0000
0000
,
0100
1000
0010
1000
,
0001
0000
0100
0001
1000
0000
0000
0000
,
0001
1000
0010
0010
,
0100
0000
0001
1000
0010
0000
0000
0000
,
0100
0100
0100
0000
0010
0000
0000
0000
,
1001
1000
0100
0100
,
0010
0000
0001
1000
0020
0000
0030
0000
,
0100
0100
0001
0001
,
1000
0100
1000
0000
1100
0000
0101
0000
;

//---------------dance-single - ----------------
#NOTEDATA:;
#CHARTNAME:;
#STEPSTYPE:dance-single;
#DESCRIPTION:;
#CHARTSTYLE:;
#DIFFICULTY:Easy;
#METER:3;
#RADARVALUES:0.204773,0.354061,0.059726,0.216505,0.000000,155.000000,8.000000,29.000000,0.000000,0.000000,0.000000,0.000000,0.000000,0.204773,0.354061,0.059726,0.216505,0.000000,155.000000,8.000000,29.000000,0.000000,0.000000,0.000000,0.000000,0.000000;
#CREDIT:Ben Speirs;
#NOTES:
// measure 0
0000
0000
0000
0000
,  // measure 1
0000
0000
0000
0000
,  // measure 2
0000
0000
0000
0000
,  // measure 3
0000
0000
0000
0000
,  // measure 4
0001
0100
0200
0300
,  // measure 5
0010
1000
0001
0000
,  // measure 6
1000
0100
0200
0300
,  // measure 7
2000
3000
0001
0000
,  // measure 8
1001
0000
0001
0000
,  // measure 9
0100
0010
0010
0000
,  // measure 10
1000
0000
0100
0000
,  // measure 11
1000
0010
0010
0000
,  // measure 12
0100
0000
0001
0000
,  // measure 13
1000
0010
0010
0000
,  // measure 14
1000
0000
0001
0000
,  // measure 15
0100
0010
0010
0100
,  // measure 16
0000
0001
0000
0001
,  // measure 17
0000
1000
0000
1000
,  // measure 18
0100
0010
0000
0010
,  // measure 19
0000
0001
0000
0001
,  // measure 20
1000
0010
0000
0010
,  // measure 21
0000
0100
0000
0100
,  // measure 22
0001
1000
0000
1000
,  // measure 23
0000
0001
0000
0001
,  // measure 24
0200
0300
0000
0000
,  // measure 25
0200
0300
0000
0000
,  // measure 26
2002
3003
0000
0000
,  // measure 27
2002
3003
0010
0010
,  // measure 28
2002
3003
1000
0000
,  // measure 29
0100
0000
0010
0001
,  // measure 30
0100
0100
0020
0030
,  // measure 31
0100
0000
0001
0000
,  // measure 32
1000
0010
0020
0030
,  // measure 33
1000
0000
0001
0000
,  // measure 34
1000
0100
0200
0300
,  // measure 35
0010
0001
1000
0000
,  // measure 36
1001
0000
0001
0000
,  // measure 37
1000
0001
0100
0100
,  // measure 38
0020
0030
1000
0000
,  // measure 39
0010
1000
0100
0000
,  // measure 40
0000
1000
0002
0003
,  // measure 41
0001
0000
1000
0000
,  // measure 42
0010
0100
0200
0300
,  // measure 43
0002
0003
2000
3000
,  // measure 44
0020
0000
0030
0000
,  // measure 45
0200
0000
0300
0000
,  // measure 46
0002
0000
0003
0000
,  // measure 47
1000
0000
1000
1000
,  // measure 48
0000
0010
0000
0010
,  // measure 49
0000
0010
0000
0000
,  // measure 50
0000
0100
0000
0100
,  // measure 51
0000
0100
0000
0000
,  // measure 52
0001
0001
0001
0001
,  // measure 53
1000
1000
1000
1000
,  // measure 54
0010
0010
0010
0010
,  // measure 55
0100
0000
0000
0000
,  // measure 56
2002
3003
1000
0000
,  // measure 57
0001
1000
0010
0010
,  // measure 58
0200
0300
0001
0000
,  // measure 59
0100
0001
1000
0000
,  // measure 60
0010
0010
0200
0300
,  // measure 61
0001
0000
1000
0000
,  // measure 62
0100
1000
0002
0003
,  // measure 63
0100
0001
1000
0000
,  // measure 64
1001
0000
1000
0000
,  // measure 65
0010
0010
0200
0300
,  // measure 66
0001
0000
1000
0000
,  // measure 67
0100
0200
0300
1001
;

//---------------dance-single - ----------------
#NOTEDATA:;
#CHARTNAME:;
#STEPSTYPE:dance-single;
#DESCRIPTION:;
#CHARTSTYLE:;
#DIFFICULTY:Beginner;
#METER:1;
#RADARVALUES:0.101320,0.151740,0.059726,0.000000,0.000000,87.000000,8.000000,0.000000,0.000000,0.000000,0.000000,0.000000,0.000000,0.101320,0.151740,0.059726,0.000000,0.000000,87.000000,8.000000,0.000000,0.000000,0.000000,0.000000,0.000000,0.000000;
#CREDIT:Ben Speirs;
#NOTES:
// measure 0
0000
0000
0000
0000
,  // measure 1
0000
0000
0000
0000
,  // measure 2
0000
0000
0000
0000
,  // measure 3
0000
0000
0000
0000
,  // measure 4
1000
0000
0000
0000
,  // measure 5
0010
0000
0000
0000
,  // measure 6
0100
0000
0100
0000
,  // measure 7
0100
0000
0000
0000
,  // measure 8
0001
0000
0000
0000
,  // measure 9
1000
0000
1000
0000
,  // measure 10
1000
0000
0000
0000
,  // measure 11
0010
0000
0010
0000
,  // measure 12
0010
0000
0000
0000
,  // measure 13
0100
0000
0100
0000
,  // measure 14
0100
0000
0000
0000
,  // measure 15
0001
0000
0000
0000
,  // measure 16
0000
1000
0000
1000
,  // measure 17
0000
0000
0000
0000
,  // measure 18
0000
0010
0000
0010
,  // measure 19
0000
0000
0000
0000
,  // measure 20
0000
0100
0000
0100
,  // measure 21
0000
0000
0000
0000
,  // measure 22
0000
0001
0000
0001
,  // measure 23
0000
0000
0000
0000
,  // measure 24
1000
1000
0000
0000
,  // measure 25
0001
0001
0000
0000
,  // measure 26
1001
0000
0000
0000
,  // measure 27
1001
0000
0000
0000
,  // measure 28
1001
0000
0000
0000
,  // measure 29
1000
0000
1000
0000
,  // measure 30
0010
0000
0000
0000
,  // measure 31
0100
0000
0100
0000
,  // measure 32
0001
0000
0000
0000
,  // measure 33
1000
0000
1000
0000
,  // measure 34
0001
0000
0000
0000
,  // measure 35
0100
0100
0000
0000
,  // measure 36
1001
0000
0000
0000
,  // measure 37
0001
0000
0001
0000
,  // measure 38
0010
0000
0000
0000
,  // measure 39
0100
0000
0100
0000
,  // measure 40
1000
0000
0000
0000
,  // measure 41
0010
0000
0010
0000
,  // measure 42
0100
0000
0000
0000
,  // measure 43
0001
0001
0000
0000
,  // measure 44
1001
0000
0000
0000
,  // measure 45
1000
0000
0000
0000
,  // measure 46
0010
0000
0000
0000
,  // measure 47
0010
0000
0010
0010
,  // measure 48
0000
0100
0000
0100
,  // measure 49
0000
0000
0000
0000
,  // measure 50
0100
0000
0000
0000
,  // measure 51
0001
0000
0001
0000
,  // measure 52
1001
0000
0000
0000
,  // measure 53
1000
0000
0000
0000
,  // measure 54
0010
0000
0000
0000
,  // measure 55
0100
0000
0000
0000
,  // measure 56
0110
0000
0000
0000
,  // measure 57
1000
0000
1000
0000
,  // measure 58
0010
0000
0000
0000
,  // measure 59
1000
0000
1000
0000
,  // measure 60
0001
0000
0000
0000
,  // measure 61
0001
0000
0001
0000
,  // measure 62
0100
0000
0000
0000
,  // measure 63
0100
0100
0000
0000
,  // measure 64
0110
0000
0000
0000
,  // measure 65
1000
0000
0000
0000
,  // measure 66
0100
0000
0000
0000
,  // measure 67
0010
0000
0010
0010
;
