#VERSION:0.82;
#TITLE:Hater;
#SUBTITLE:;
#ARTIST:Korn;
#TITLETRANSLIT:;
#SUBTITLETRANSLIT:;
#ARTISTTRANSLIT:;
#GENRE:Don't You Bring Me Down Today;
#ORIGIN:;
#CREDIT:;
#BANNER:Hater.png;
#BACKGROUND:Hater-bg.png;
#PREVIEWVID:;
#JACKET:jacket.png;
#CDIMAGE:;
#DISCIMAGE:;
#LYRICSPATH:;
#CDTITLE:;
#MUSIC:Hater.ogg;
#OFFSET:-0.780000;
#SAMPLESTART:102.894035;
#SAMPLELENGTH:13.714000;
#SELECTABLE:YES;
#BPMS:0.000=94.000;
#STOPS:;
#DELAYS:;
#WARPS:;
#TIMESIGNATURES:0.000=4=4;
#TICKCOUNTS:0.000=4;
#COMBOS:0.000=1;
#SPEEDS:0.000=1.000=0.000=0;
#SCROLLS:0.000=1.000;
#FAKES:;
#LABELS:0.000=Song Start;
#BGCHANGES:0.000=Hater.avi=1.000=0=0=1=====,
99999=-nosongbg-=1.000=0=0=0 // don't automatically add -songbackground-
;
#KEYSOUNDS:;
#ATTACKS:
;

//---------------dance-single - ----------------
#NOTEDATA:;
#CHARTNAME:;
#STEPSTYPE:dance-single;
#DESCRIPTION:;
#CHARTSTYLE:;
#DIFFICULTY:Hard;
#METER:9;
#RADARVALUES:0.516595,0.511804,0.357242,0.109360,0.262463,432.000000,49.000000,15.000000,0.000000,0.000000,0.000000,0.000000,0.000000,0.516595,0.511804,0.357242,0.109360,0.262463,432.000000,49.000000,15.000000,0.000000,0.000000,0.000000,0.000000,0.000000;
#CREDIT:Ben Speirs;
#NOTES:
0000
0000
0000
0000
,
0000
0000
0000
0000
,
2000
0000
0000
3100
0010
0002
0000
0000
,
0103
0000
0001
0000
1000
1000
0010
1000
,
0001
0000
0001
0000
0100
0001
0000
0000
1000
0000
1000
0000
0100
1000
0000
0000
,
0001
0000
0001
0000
0010
0001
0000
0000
1000
0000
1000
0000
0010
1000
0000
0000
,
0001
0001
1000
1000
0010
0010
0100
0100
,
0001
0000
1000
0000
0100
0000
0010
0000
0001
0000
1000
0000
0010
0100
0010
0000
,
1000
0000
1010
0000
0010
0010
0100
0000
0001
0000
1001
0000
1000
1000
0100
0000
,
0010
0000
0011
0000
0001
0001
1000
0000
0010
0000
0100
0000
0001
1000
0000
0000
,
0001
0000
0101
0000
0100
0100
0010
0000
1000
0000
1001
0000
0001
0001
0010
0000
,
0100
0000
1100
0000
1000
1000
0001
0000
0100
0000
0001
0000
1000
0010
1000
1000
,
0001
0100
1001
0000
1000
0100
1001
0000
,
0001
0010
0100
1000
0010
0100
0001
0000
,
1000
0100
1000
0000
0001
0000
0000
0000
0001
0100
0001
0000
1000
0000
0000
0000
,
0001
0000
0010
0000
0100
0000
1000
0000
0010
0100
0010
0000
1000
0000
0000
0000
,
1010
1010
0001
0000
0011
0011
1000
0000
,
0100
0000
0100
0000
1000
0000
0010
0000
0100
0001
0100
0000
0010
0000
0000
0000
,
1001
0000
1001
0000
0100
0000
0000
0000
0001
1000
0001
0000
1000
0000
0000
0000
,
0100
0000
0100
0000
1000
0000
1000
0000
0010
0000
0100
0000
0001
1000
0001
0000
,
0101
0000
0100
0000
0010
0000
1000
0000
0200
0000
0010
0300
0020
0000
0001
0030
,
0002
0000
1003
0100
1000
0000
0001
0000
1000
0000
0010
0000
0010
0000
0100
0000
,
1010
0000
0010
0000
0100
0000
0001
0000
0020
0000
0100
0030
0200
0000
1000
0300
,
2000
0000
3001
0010
0001
0000
1000
0000
0001
0000
0100
0000
0010
1000
0000
0000
,
0101
0000
0100
0001
1000
0000
0100
0000
1200
0000
0010
0300
0020
0000
0001
0030
,
0001
0000
1000
0100
1000
0000
0001
0000
0100
0000
0100
0000
1001
0000
0000
0000
,
0001
1000
0010
0010
0100
0100
1001
0000
,
1000
0000
0100
0010
0001
0000
1000
0000
0010
0100
0010
0000
1000
0001
1000
1000
,
0001
0000
0101
0000
0100
0100
0010
0000
1000
0000
1001
0000
0001
0001
0010
0000
,
0100
0000
1100
0000
1000
1000
0001
0000
0100
0000
0010
0000
1000
0001
0000
0000
,
1000
0000
1010
0000
0010
0010
0100
0000
0001
0000
1001
0000
1000
1000
0100
0000
,
0010
0000
0011
0000
0001
0001
1000
0000
0010
0000
1000
0000
0001
0010
0100
1000
,
0002
0100
0103
0000
2000
0100
3100
0000
,
0002
0010
0013
0000
2000
0010
3010
0000
,
0001
1000
1010
0000
1000
0001
0011
0000
,
0001
1000
1100
0000
1000
0001
0101
0000
,
1001
1001
0100
1000
1010
1010
0100
0000
,
0101
0101
0010
1000
1001
1001
0100
0000
,
1100
0100
0010
0001
1000
0100
0010
0001
,
1000
0000
0000
0000
0001
0000
0000
0000
1000
0000
0000
0000
0001
0000
0000
0000
0100
0000
0010
0000
1000
0000
0100
0000
0010
0000
0001
0000
1000
0100
1000
0100
,
1000
0000
0001
0000
1001
0000
0000
0000
0001
0100
1000
0000
1000
0100
0001
0000
,
1000
0000
0100
0010
0001
0000
1000
0000
0001
0000
0100
0000
0010
0000
1000
0000
,
0001
0000
1000
0000
1001
0000
0000
0000
1000
0010
0001
0000
0001
0010
1000
0000
,
0001
0000
0010
0100
1000
0000
0001
0000
1000
0000
0010
0000
0100
0000
0001
0000
,
1000
0100
1000
0100
0020
0000
0000
0000
0031
0100
1000
0000
1000
0100
0001
0000
,
1000
0000
0100
0010
0001
0000
1000
0000
0010
0000
0010
0000
1001
0000
0000
0000
,
1000
0000
0001
0100
0010
0000
1000
0000
0100
0000
0100
0000
1001
0000
0000
0000
,
0001
0000
0100
0010
0100
0000
0001
0000
1000
0100
1000
0000
0001
0010
0100
1000
,
0010
0000
1010
0000
0100
0100
0001
0000
1000
0000
1100
0000
0001
0001
0010
0000
,
0001
0000
1001
0000
1000
1000
0010
0000
0100
0001
1000
0000
0100
1000
0001
0000
,
0010
0000
0011
0000
1000
1000
0001
0000
0100
0000
1001
0000
1000
1000
0010
0000
,
0100
0000
0101
0000
0010
0010
1000
0000
0001
0010
0100
1000
0010
0100
0001
1000
,
0001
0000
0000
0000
;

//---------------dance-single - ----------------
#NOTEDATA:;
#CHARTNAME:;
#STEPSTYPE:dance-single;
#DESCRIPTION:;
#CHARTSTYLE:;
#DIFFICULTY:Challenge;
#METER:10;
#RADARVALUES:0.686363,0.701360,0.189557,0.072906,0.863942,623.000000,26.000000,10.000000,0.000000,0.000000,0.000000,0.000000,0.000000,0.686363,0.701360,0.189557,0.072906,0.863942,623.000000,26.000000,10.000000,0.000000,0.000000,0.000000,0.000000,0.000000;
#CREDIT:Ben Speirs;
#NOTES:
// measure 0
0000
0000
0000
0000
,  // measure 1
0000
0000
0000
0000
,  // measure 2
0002
0000
0000
0103
0010
2000
0000
0000
,  // measure 3
3100
0010
0000
0010
0001
1000
0000
1000
,  // measure 4
0010
0000
0010
0000
0100
0001
0100
0001
1000
0000
1000
0000
0100
1000
0100
1000
,  // measure 5
0010
0000
0010
0000
1000
0001
1000
0001
0100
0000
0100
0000
0001
0010
0001
0010
,  // measure 6
0100
0000
0100
0000
1000
0001
1000
0001
0100
0000
0100
0000
0001
1000
0001
1000
,  // measure 7
0010
0000
0010
0000
0100
0000
0100
0000
0001
1000
0001
0000
1000
0100
0010
0001
,  // measure 8
1000
0000
1100
0000
0100
0100
1000
1000
0010
0000
1010
0000
1000
1000
0001
0001
,  // measure 9
0010
0000
0011
0000
0001
0001
0100
0100
0010
0000
0010
0000
1000
0001
1000
0000
,  // measure 10
0001
0000
0011
0000
0010
0010
0001
0001
0100
0000
0101
0000
0001
0001
1000
1000
,  // measure 11
0100
0000
1100
0000
1000
1000
0010
0010
0100
0000
0100
0000
0010
1000
0010
0010
,  // measure 12
0100
0000
0001
0000
1000
0100
1000
0000
0010
0000
1000
0000
0001
0100
0001
0000
,  // measure 13
1000
0000
0001
0000
0010
0100
0010
0000
0001
0000
1000
0000
0010
0100
0010
0000
,  // measure 14
1010
0000
1010
0000
1000
0001
1000
0000
0010
0000
0100
0000
0001
1000
0001
0000
,  // measure 15
0010
0000
0001
0000
1000
0100
1000
0000
0001
0000
0010
0000
0001
1000
0001
0000
,  // measure 16
1001
0000
1001
0000
0100
1000
0010
0000
0100
0000
0001
0000
1000
0001
0010
0000
,  // measure 17
0100
0000
1000
0000
0001
0010
0100
0000
1000
0000
0001
0000
0100
0010
1000
0000
,  // measure 18
1001
0000
1001
0000
0100
1000
0001
0000
0010
0000
0001
0000
1000
0010
0100
0000
,  // measure 19
0001
0000
1000
0000
0100
1000
0010
0000
0100
0000
0001
0000
1000
0001
1000
0000
,  // measure 20
0001
0100
0010
1000
0100
0010
0001
1000
0010
0100
0001
1000
0100
0010
0001
1000
,  // measure 21
0010
0100
0010
0100
0001
1000
0001
1000
0100
0010
0100
0010
0001
1000
0001
1000
,  // measure 22
0010
0100
0001
0010
0100
1000
0001
1000
0010
0100
0001
0010
0100
1000
0001
0100
,  // measure 23
0010
1000
0010
1000
0001
0100
0001
0100
0010
1000
0010
1000
0100
0010
0001
0000
,  // measure 24
1000
0010
0100
0001
0010
0100
1000
0001
0100
0010
1000
0001
0010
0100
1000
0001
,  // measure 25
0100
0010
0100
0010
1000
0001
1000
0001
0010
0100
0010
0100
1000
0001
1000
0001
,  // measure 26
0100
0010
1000
0100
0010
0001
1000
0001
0100
0010
1000
0100
0010
0001
1000
0010
,  // measure 27
0100
0001
0100
0001
1000
0001
1000
0001
1000
0100
1000
0100
0010
0100
0010
0000
,  // measure 28
0001
0000
0011
0000
0010
0010
0001
0001
0100
0000
0101
0000
0001
0001
1000
1000
,  // measure 29
0100
0000
1100
0000
1000
1000
0010
0010
0100
0000
0100
0000
0001
1000
0001
0000
,  // measure 30
1000
0000
1100
0000
0100
0100
1000
1000
0010
0000
1010
0000
1000
1000
0001
0001
,  // measure 31
0010
0000
0011
0000
0001
0001
0100
0100
0010
0000
0010
0000
0100
0001
0100
0100
,  // measure 32
0020
0001
1030
0000
2000
0100
3001
0000
,  // measure 33
0002
0010
0103
0000
0200
1000
0301
0000
,  // measure 34
2000
0100
3001
0000
0002
0010
1003
0000
,  // measure 35
0020
1000
0031
0000
0200
1000
0301
0000
,  // measure 36
0101
0000
0001
0100
0010
0000
1000
0000
1100
0000
0100
1000
0010
0000
0100
0000
,  // measure 37
0110
0000
0010
1000
0100
0000
0010
0000
0110
0000
0010
0001
0100
0000
0001
0000
,  // measure 38
0101
0100
0100
0100
1010
0010
0010
0010
,  // measure 39
1000
0000
0001
0000
1000
0000
0001
0000
1000
0000
0001
0000
1000
0000
0001
0000
0100
0000
0010
0000
1000
0000
0100
0000
0010
0000
0001
0000
1000
0100
0010
0001
,  // measure 40
1000
0010
0100
0001
0010
0100
1000
0001
0100
0010
1000
0001
0010
0100
1000
0001
,  // measure 41
0100
0010
0100
0010
1000
0001
1000
0001
0010
0100
0010
0100
1000
0001
1000
0001
,  // measure 42
0100
0010
1000
0100
0010
0001
1000
0001
0100
0010
1000
0100
0010
0001
1000
0010
,  // measure 43
0100
0001
0100
0001
1000
0010
1000
0010
0100
0001
0100
0001
0010
0100
1000
0000
,  // measure 44
0001
0100
0010
1000
0100
0010
0001
1000
0010
0100
0001
1000
0100
0010
0001
1000
,  // measure 45
0010
0100
0010
0100
0001
1000
0001
1000
0100
0010
0100
0010
0001
1000
0001
1000
,  // measure 46
0010
0100
0001
0010
0100
1000
0001
1000
0010
0100
0001
0010
0100
1000
0001
0100
,  // measure 47
0010
1000
0010
1000
0001
1000
0001
1000
0001
0010
0001
0010
0001
0100
0010
1000
,  // measure 48
0001
0100
0001
0100
0001
0000
0000
0000
0100
0000
0100
0000
0010
0000
0010
0000
1000
0100
1000
0100
1000
0000
0000
0000
0001
0000
0001
0000
1000
0000
1000
0000
,  // measure 49
0010
0100
0010
0100
0010
0000
0000
0000
1000
0000
0100
0000
0010
0000
0001
0000
0100
0000
0010
0000
1000
0000
0100
0000
1000
0000
1001
0000
0000
0000
0000
0000
,  // measure 50
1000
0010
1000
0010
1000
0000
0000
0000
0010
0000
0010
0000
0100
0000
0100
0000
0001
0010
0001
0010
0001
0000
0000
0000
1000
0000
1000
0000
0001
0000
0001
0000
,  // measure 51
0100
0010
0100
0010
0100
0000
0000
0000
0001
0000
0010
0000
0100
0000
1000
0000
0010
0000
0100
0000
0001
0000
0001
0000
1000
0000
0100
0000
0100
0000
0010
0000
,  // measure 52
1001
0000
0000
0000
;

//---------------dance-double - ----------------
#NOTEDATA:;
#CHARTNAME:;
#STEPSTYPE:dance-double;
#DESCRIPTION:;
#CHARTSTYLE:;
#DIFFICULTY:Challenge;
#METER:10;
#RADARVALUES:0.669698,0.701360,0.277045,0.036453,0.831134,600.000000,38.000000,5.000000,0.000000,0.000000,0.000000,0.000000,0.000000,0.669698,0.701360,0.277045,0.036453,0.831134,600.000000,38.000000,5.000000,0.000000,0.000000,0.000000,0.000000,0.000000;
#CREDIT:Ben Speirs;
#NOTES:
00000000
00000000
00000000
00000000
,
00000000
00000000
00000000
00000000
,
20000000
00000000
00000000
31000000
00100000
00020000
00000000
00000000
,
01030000
01000000
00000000
00100000
10000000
10000000
00000000
00010000
,
00100000
00000000
00100000
00000000
00001000
00100000
00001000
00100000
00010000
00000000
00010000
00000000
10000000
00010000
10000000
00010000
,
01000000
00000000
01000000
00000000
00001000
01000000
00001000
01000000
00010000
00000000
00010000
00000000
00100000
00010000
00100000
00010000
,
10000000
01000000
00010000
00010000
01000000
00010000
00001000
00001000
,
00010000
00001000
00000100
00000000
00001000
00000100
00000001
00000000
00001000
00000100
00000010
00000000
00000001
00001000
00000001
00000000
,
00000100
00000000
00000101
00000000
00000001
00000001
00001000
00001000
00000100
00000000
00001100
00000000
00000100
00000100
00001000
00001000
,
00000010
00000000
00001010
00000000
00000010
00000010
00010000
00010000
00001000
00000000
00011000
00000000
00100000
00010000
00000000
00000000
,
00110000
00000000
10100000
00000000
10000000
10000000
00010000
00010000
00100000
00000000
00110000
00000000
00100000
00100000
00010000
00010000
,
01000000
00000000
01010000
00000000
01000000
01000000
00001000
00001000
00010000
00000000
00011000
00000000
00001000
00010000
00100000
00100000
,
20000000
00000000
01000000
00000000
30010000
00000000
00000000
00000000
00010000
01000000
00010000
00000000
10000000
00000000
00000000
00000000
,
00100000
00000000
10000000
00000000
01000000
00100000
01000000
00000000
10000000
00000000
00010000
00000000
01000000
00000000
00000000
00000000
,
01010000
00000000
11000000
00000000
00100000
00000000
00000000
00000000
10000000
01000000
10000000
00000000
00010000
00000000
00000000
00000000
,
01000000
00000000
00010000
00000000
00100000
00000000
00001000
00000000
00010000
00001000
00010000
00000000
00000100
00000000
00000000
00000000
,
00001100
00000000
00000101
00000000
00001000
00000000
00000000
00000000
00001000
00000010
00001000
00000000
00000001
00000000
00000000
00000000
,
00000100
00000000
00000001
00000000
00000010
00000100
00000010
00000000
00000001
00000000
00001000
00000000
00000010
00000000
00000000
00000000
,
00001010
00000000
00000011
00000000
00000100
00000000
00000000
00000000
00000001
00000010
00000001
00000000
00001000
00000000
00000000
00000000
,
00000010
00000000
00001000
00000000
00000100
00000000
00010000
00000000
00001000
00010000
00001000
00000000
00100000
00001000
00100000
00000000
,
00010000
00100000
01000000
10000000
00100000
01000000
00010000
10000000
00010000
01000000
00010000
01000000
00100000
10000000
00100000
10000000
,
00010000
00100000
01000000
10000000
00100000
01000000
00010000
00100000
00001000
00010000
00001000
00010000
00000100
00001000
00000100
00001000
,
00000010
00000100
00000001
00001000
00000100
00000010
00000001
00001000
00000010
00000100
00000010
00000100
00000001
00001000
00000001
00001000
,
00000010
00000100
00000001
00001000
00000100
00000010
00000001
00001000
00000100
00010000
00001000
00000100
00001000
00010000
00001000
00010000
,
00100000
10000000
01000000
00100000
00010000
10000000
00100000
01000000
00010000
10000000
00010000
10000000
01000000
00100000
01000000
00100000
,
00010000
01000000
00100000
10000000
01000000
00100000
00010000
10000000
00100000
01000000
00010000
00100000
00001000
01000000
00010000
10000000
,
01000000
00100000
01000000
00100000
00010000
00100000
00010000
00100000
00001000
00100000
00001000
00100000
00000010
00100000
00000010
00100000
,
00001000
00010000
00001000
00001000
00010000
00001000
00010000
00010000
00001000
00000100
00000001
00001000
00000100
00000010
00000001
00001000
,
00001100
00000000
00000101
00000000
00000001
00000001
00001000
00001000
00000100
00000000
00001100
00000000
00000100
00000100
00001000
00001000
,
00000010
00000000
00001010
00000000
00000010
00000010
00010000
00010000
00001000
00000000
00011000
00000000
00100000
00010000
00000000
00000000
,
00110000
00000000
10100000
00000000
10000000
10000000
00010000
00010000
00100000
00000000
00110000
00000000
00100000
00100000
00010000
00010000
,
01000000
00000000
01010000
00000000
01000000
01000000
00001000
00001000
00010000
00000000
00011000
00000000
00001000
00010000
00100000
00100000
,
20000000
31000000
00020000
01030000
,
10000000
00010000
10010000
00000000
00010000
10000000
10010000
00000000
,
00010000
00100000
00101000
00000000
00010000
00000100
00010100
00000000
,
00001000
00000100
00000011
00000000
00000001
00000100
00001010
00000000
,
00000001
00001000
00001100
00000100
00001000
00000010
00000110
00000100
,
00000001
00000000
00000010
00000000
00000011
00000000
00000001
00000000
00001000
00000000
00000010
00000000
00001010
00000000
00001000
00000100
,
00010100
00010000
00010000
00010000
00011000
00001000
00001000
00001000
,
00100000
00000000
00010000
00000000
10000000
00000000
00100000
00000000
01000000
00000000
00010000
00000000
00100000
00000000
00001000
00000000
00010000
00000000
00000010
00000000
00001000
00000000
00000001
00000000
00000010
00000000
00000001
00000000
00001000
00000010
00000100
00000001
,
00001000
00000100
00000010
00000001
00000100
00000010
00001000
00000001
00001000
00000010
00001000
00000010
00000100
00000001
00000100
00000001
,
00001000
00000100
00000010
00000001
00000100
00000010
00001000
00000100
00010000
00001000
00010000
00001000
00100000
00010000
00100000
00010000
,
01000000
00100000
10000000
00010000
00100000
01000000
10000000
00010000
01000000
00100000
01000000
00100000
10000000
00010000
10000000
00010000
,
01000000
00100000
10000000
00010000
00100000
01000000
10000000
00010000
00100000
00001000
00010000
00100000
00010000
00001000
00010000
00001000
,
00000100
00000001
00000010
00000100
00001000
00000001
00000100
00000010
00001000
00000001
00001000
00000001
00000010
00000100
00000010
00000100
,
00001000
00000010
00000100
00000001
00000010
00000100
00001000
00000001
00000100
00000010
00001000
00000100
00010000
00000010
00001000
00000001
,
00000010
00000100
00000010
00000100
00001000
00000100
00001000
00000100
00010000
00000100
00010000
00000100
01000000
00000100
01000000
00000100
,
00010000
00001000
00010000
00010000
00001000
00010000
00001000
00001000
00010000
00100000
10000000
00010000
00100000
01000000
10000000
00010000
,
01000000
00100000
01000000
00100000
01000000
00000000
00000000
00000000
00010000
00000000
01000000
00000000
00100000
00000000
10000000
00000000
00010000
01000000
00010000
01000000
00010000
00000000
00000000
00000000
10000000
00000000
01000000
00000000
00100000
00000000
00010000
00000000
,
10000000
01000000
10000000
01000000
10000000
00000000
00000000
00000000
00010000
00000000
01000000
00000000
10000000
00000000
01000000
00000000
00010000
00000000
00100000
00000000
00001000
00000000
00010000
00000000
00000100
00000000
00001000
00000000
00000010
00000000
00000100
00000000
,
00000001
00000100
00000001
00000100
00000001
00000000
00000000
00000000
00001000
00000000
00000010
00000000
00000100
00000000
00000001
00000000
00001000
00000010
00001000
00000010
00001000
00000000
00000000
00000000
00000001
00000000
00000010
00000000
00000100
00000000
00001000
00000000
,
00000001
00000010
00000001
00000010
00000001
00000000
00000000
00000000
00001000
00000000
00000010
00000000
00000001
00000000
00000010
00000000
00001000
00000000
00000100
00000000
00010000
00000000
00001000
00000000
00100000
00000000
00010000
00000000
01000000
00000000
00100000
00000000
,
10010000
00000000
00000000
00000000
;

//---------------dance-single - ----------------
#NOTEDATA:;
#CHARTNAME:;
#STEPSTYPE:dance-single;
#DESCRIPTION:;
#CHARTSTYLE:;
#DIFFICULTY:Medium;
#METER:6;
#RADARVALUES:0.337453,0.341202,0.043744,0.211429,0.003645,289.000000,6.000000,29.000000,0.000000,0.000000,0.000000,0.000000,0.000000,0.337453,0.341202,0.043744,0.211429,0.003645,289.000000,6.000000,29.000000,0.000000,0.000000,0.000000,0.000000,0.000000;
#CREDIT:Ben Speirs;
#NOTES:
0000
0000
0000
0000
,
0000
0000
0000
0000
,
0002
0000
0000
0103
0001
2000
0000
0000
,
3100
1000
0001
0100
,
0010
0010
1000
0000
0100
0100
0010
0000
,
0001
0001
1000
0000
0010
0010
0100
0000
,
0001
1000
0001
1000
0001
1000
0001
1000
,
0010
0100
0010
0100
0001
1000
0010
0000
,
1000
1000
0001
0000
0100
0100
0010
0000
,
1000
1000
0100
0000
1000
1000
0001
0001
,
0100
0100
0010
0000
1000
1000
0001
0000
,
0010
0010
0100
0000
1000
1000
0001
0001
,
0200
0000
0310
0000
1000
0100
1000
0000
,
0002
0000
0013
0000
0001
1000
0001
0000
,
0100
0100
0010
0000
1000
0001
1000
0000
,
0200
0000
0310
0000
0001
1000
0001
0000
,
1100
1100
0000
0000
0001
1000
0001
0000
,
0100
0010
1000
0000
0100
0010
0001
0000
,
0011
0011
0000
0000
0001
1000
0001
0000
,
1000
0010
0100
0000
0001
1000
0010
0000
,
1000
0001
0200
0000
0010
0000
0010
0000
,
0310
1000
1000
0001
0001
0010
0001
1000
,
0010
0100
0002
0000
1000
0000
1000
0000
,
1003
0100
0100
0010
0010
0001
1000
0001
,
0100
0010
2000
0000
0100
0000
0100
0000
,
3100
0000
1000
0001
0100
0100
0010
0000
,
1000
0000
0001
0010
0001
0001
1000
0000
,
0010
0000
1000
0100
0010
0001
1000
0000
,
0100
0100
2000
0000
3010
0010
0200
0000
,
0301
0001
0020
0000
0031
0001
1000
1000
,
0010
0010
0200
0000
0301
0001
2000
0000
,
3100
0100
0020
0000
0031
1000
0001
1000
,
0020
0130
0000
0100
,
0002
0013
0000
0010
,
0200
1300
0000
1000
,
0020
0130
0000
0100
,
0001
1000
0001
0000
1000
0001
1000
0000
,
0010
0100
0010
0000
0100
0010
0100
0000
,
2002
0000
0000
3003
,
0100
0000
0100
0000
0100
0000
0100
0000
0001
0000
0001
0000
1000
0000
0001
0100
,
0001
1000
0020
0000
0100
0000
0100
0000
,
0130
0001
0001
1000
1000
0100
1000
0001
,
0100
0010
2000
0000
0001
0000
0001
0000
,
3001
0010
0010
0100
0100
1000
0001
1000
,
0010
0100
0002
0000
0010
0000
0010
0000
,
0013
0000
0001
1000
0010
0010
0100
0000
,
0001
0000
1000
0100
1000
1000
0001
0000
,
0100
0000
0001
0010
0100
1000
0001
0000
,
0010
0010
0002
0000
0103
0100
0020
0000
,
1030
1000
0200
0000
1300
1000
0001
0001
,
0100
0100
0020
0000
1030
1000
0002
0000
,
0013
0010
0200
0000
1300
0001
1000
0001
,
0110
0000
0000
0000
;

//---------------dance-single - ----------------
#NOTEDATA:;
#CHARTNAME:;
#STEPSTYPE:dance-single;
#DESCRIPTION:;
#CHARTSTYLE:;
#DIFFICULTY:Easy;
#METER:4;
#RADARVALUES:0.168726,0.189557,0.014581,0.043744,0.000000,154.000000,2.000000,6.000000,0.000000,0.000000,0.000000,0.000000,0.000000,0.168726,0.189557,0.014581,0.043744,0.000000,154.000000,2.000000,6.000000,0.000000,0.000000,0.000000,0.000000,0.000000;
#CREDIT:Ben Speirs;
#NOTES:
0000
0000
0000
0000
,
0000
0000
0000
0000
,
0100
0000
0010
0000
,
1000
0000
0001
0000
,
1000
0100
1000
1000
,
0001
0100
0001
0001
,
1000
0001
1000
0001
,
0100
0010
0100
0010
,
1000
1000
0000
0000
0001
0001
0000
0000
,
0100
0100
0000
0000
0010
0000
0010
0000
,
1000
1000
0000
0000
0100
0100
0000
0000
,
0010
0010
0000
0000
0001
0000
0001
0000
,
0200
0300
0000
0000
,
0010
0000
1000
0000
,
0002
0003
0000
0000
,
1000
0000
0001
0000
,
0010
0010
0000
0000
0000
0000
0000
0000
,
0001
0000
1000
0000
,
0010
0010
0000
0000
0000
0000
0000
0000
,
1000
0000
0001
0000
,
0100
0100
0100
0000
0000
0000
0000
0000
,
0010
1000
0001
0010
,
0001
0001
0001
0000
0000
0000
0000
0000
,
0010
0001
1000
0010
,
1000
1000
1000
0000
0000
0000
0000
0000
,
0010
1000
0001
0000
,
0100
0001
1000
0000
,
0100
1000
0001
0010
,
0001
0001
0000
0000
1000
1000
0000
0000
,
0010
0010
0000
0000
0100
0000
0100
0000
,
0001
0001
0000
0000
1000
1000
0000
0000
,
0100
0100
0000
0000
1000
0000
1000
0000
,
0020
0000
0000
0030
,
2000
0000
0000
3000
,
0002
0000
0000
0003
,
0200
0000
0000
0300
,
0001
0001
1000
1000
,
0010
0010
0100
0100
,
0110
0000
0000
0000
,
1000
0001
1000
0010
,
0100
0001
0100
0000
0000
0000
0000
0000
,
0001
0100
0001
1000
,
0010
1000
0010
0000
0000
0000
0000
0000
,
1000
0001
0010
0001
,
1000
0100
1000
0000
0000
0000
0000
0000
,
0010
1000
0001
0000
,
0010
0001
1000
0000
,
0010
0100
0001
1000
,
0100
0100
0000
0000
1000
1000
0000
0000
,
0001
0001
0000
0000
0100
0000
0100
0000
,
0010
0010
0000
0000
1000
1000
0000
0000
,
0001
0001
0000
0000
1000
0000
1000
0000
,
1001
0000
0000
0000
;

//---------------dance-single - ----------------
#NOTEDATA:;
#CHARTNAME:;
#STEPSTYPE:dance-single;
#DESCRIPTION:;
#CHARTSTYLE:;
#DIFFICULTY:Beginner;
#METER:2;
#RADARVALUES:0.109360,0.151645,0.094778,0.000000,0.000000,92.000000,13.000000,0.000000,0.000000,0.000000,0.000000,0.000000,0.000000,0.109360,0.151645,0.094778,0.000000,0.000000,92.000000,13.000000,0.000000,0.000000,0.000000,0.000000,0.000000,0.000000;
#CREDIT:;
#NOTES:
0000
0000
0000
0000
,
0000
0000
0000
0000
,
0100
0000
0000
0000
,
0001
0000
0000
0000
,
1000
0000
1000
0000
,
0010
0000
0010
0000
,
0100
0000
0100
0000
,
0001
0000
0001
0000
,
1001
0000
0000
0000
,
0100
0000
1000
0000
,
0010
0000
0000
0000
,
1000
0000
0001
0000
,
0010
0000
0000
0000
,
0001
0000
0100
0000
,
0010
0010
0000
0000
,
1000
0000
0001
0000
,
0100
0100
0000
0000
,
0001
0000
1000
0000
,
0010
0010
0000
0000
,
1000
0000
0001
0000
,
1001
1001
0000
0000
,
0100
0000
0000
0000
,
1001
1001
0000
0000
,
0010
0000
0000
0000
,
1001
1001
0000
0000
,
0100
0000
0000
0000
,
1000
0000
0001
0000
,
0100
0000
0010
0010
,
0010
0000
0000
0000
,
1000
0000
0001
0000
,
0010
0000
0000
0000
,
0001
0000
1000
0000
,
0100
0000
0000
0000
,
1000
0000
0000
0000
,
0001
0000
0000
0000
,
0100
0000
0000
0000
,
0010
0010
0000
0010
,
0000
1000
0000
0001
,
0001
0000
0000
0000
,
0100
0000
0100
0100
,
0110
0110
0000
0000
,
1000
0000
0001
0000
,
0110
0110
0000
0000
,
0001
0000
1000
0000
,
0110
0110
0000
0000
,
1000
0000
0001
0000
,
0100
0000
0010
0000
,
1000
0000
0001
0000
,
0100
0100
0000
0000
,
0010
0010
0010
0000
,
1000
1000
0000
0000
,
0100
0100
0100
0100
,
0100
0000
0000
0000
;
