#TITLE:Chance!;
#SUBTITLE:;
#ARTIST:久住 小春;
#TITLETRANSLIT:;
#SUBTITLETRANSLIT:;
#ARTISTTRANSLIT:;
#CREDIT:;
#BANNER:Chance!-bn.png;
#BACKGROUND:Chance!-bg.png;
#LYRICSPATH:;
#CDTITLE:;
#MUSIC:Chance!.mp3;
#OFFSET:-0.320;
#SAMPLESTART:66.480;
#SAMPLELENGTH:17.980;
#SELECTABLE:YES;
#BPMS:0.000=156.000;
#STOPS:171.000=0.010
;
#BGCHANGES:-1.500=Chance!.avi=1.000=0=0=1,
99999=-nosongbg-=1.000=0=0=0 // don't automatically add -songbackground-
;

//---------------dance-single - ----------------
#NOTES:
     dance-single:
     :
     Beginner:
     1:
     0.103,0.187,0.037,0.000,0.000:
0000
0000
0000
0000
,
0000
0000
0000
0000
,
0010
0000
0000
0000
,
0010
0000
0000
0000
,
0010
0000
0000
0000
,
0010
0000
0000
0000
,
0100
0000
0000
0000
,
0001
0000
0000
0000
,
1000
0000
0000
0000
,
0010
0000
0000
0000
,
1000
0000
1000
0000
,
1000
0000
0000
0000
,
0010
0000
0010
0000
,
0010
0000
0000
0000
,
1000
0000
0000
0000
,
0001
0000
0000
0000
,
0010
0000
0000
0000
,
0100
0000
0000
0000
,
1001
0000
0000
0000
,
0010
0000
0000
0000
,
0100
0000
0000
0000
,
0001
0000
0000
0000
,
1000
0000
0000
0000
,
0100
0000
0000
0000
,
1000
0000
0000
0000
,
0010
0000
0000
0000
,
1000
0000
0000
0000
,
0001
0000
0000
0000
,
0010
0000
0000
0000
,
0000
0001
0001
0001
,
0001
0000
0000
0000
,
0100
0000
0000
0000
,
0010
0000
0000
0000
,
0100
0000
0000
0000
,
0010
0000
0000
0000
,
1000
0000
0000
0000
,
0100
0000
0000
0000
,
1000
0000
0000
0000
,
0001
0000
0000
0000
,
1000
0000
0000
0000
,
0010
0000
0000
0000
,
0000
0000
0000
0000
,
0000
0000
0000
0000
,
0100
0000
0100
0000
,
0100
0000
0000
0000
,
0010
0000
0010
0000
,
0010
0000
0000
0000
,
1000
0000
0000
0000
,
0001
0000
0000
0000
,
1000
0000
0000
0000
,
0100
0100
0100
0000
,
1000
0000
1000
0000
,
1000
0000
0000
0000
,
0001
0000
0001
0000
,
0001
0000
0000
0000
,
0100
0000
0000
0000
,
0001
0000
0000
0000
,
1000
0000
0000
0000
,
0100
0000
0000
0000
,
1001
0000
0000
0000
,
0010
0000
0000
0000
,
1000
0000
0000
0000
,
0100
0000
0000
0000
,
1001
0000
0000
0000
,
0001
0000
0000
0000
,
0010
0000
0000
0000
,
0100
0000
0000
0000
,
1001
0000
0000
0000
;

//---------------dance-single - ----------------
#NOTES:
     dance-single:
     :
     Medium:
     6:
     0.379,0.407,0.176,0.046,0.000:
0000
0000
0000
0000
,
0000
0000
0000
0000
,
1001
0000
0000
0000
,
0110
0000
0000
0000
,
1001
0000
0000
0000
,
0110
0000
0000
0000
,
1000
0010
0100
0001
,
1000
0100
0010
0001
,
1000
0001
0010
0100
,
0110
0000
1000
0001
0000
0000
0000
0000
,
0100
0001
1000
0000
0010
0000
1000
0000
,
0001
0000
0010
0001
0100
0000
0000
0000
,
0010
1000
0100
0000
1000
0000
0001
0000
,
0100
0000
0010
0100
0001
0000
0000
0000
,
0100
0001
1000
0100
,
1000
1010
1001
0000
,
0100
0000
0001
0010
,
0100
0000
0000
0000
1000
0100
0010
0001
,
1000
0001
0100
0010
,
0100
0001
1000
0100
,
1100
0010
1000
0001
,
0100
0010
1000
0001
,
0101
0000
0010
0000
1000
0001
1000
0001
,
0000
0100
0010
0100
,
0001
0010
0100
1000
,
0010
1000
0010
0100
,
0010
0000
1000
0000
0001
1000
0001
1000
,
0000
0100
1000
0010
,
0100
0000
0010
0000
1000
0000
0001
0100
,
0000
0101
1001
1100
,
0200
0000
1300
0010
0200
0000
0310
0000
,
0100
0001
1000
0001
,
0020
0000
0031
0100
0020
0000
1030
0000
,
0100
1000
0010
0100
,
0101
0010
0100
0001
,
1001
0010
1000
0001
,
1100
1000
0010
0100
,
0110
0010
1000
0001
,
1000
0000
0100
0000
0010
0001
0100
0000
,
0010
0000
1000
0000
0010
0100
0001
0000
,
0010
0100
1000
0000
0001
1000
0010
0000
,
0000
1000
0001
1000
0000
0010
0100
0010
,
0000
0000
0000
1001
,
0100
0001
1000
0000
0100
0000
1000
0000
,
0010
0000
0100
0010
1000
0000
0000
0000
,
0010
1000
0001
0000
0100
0000
0001
0000
,
0010
0000
0100
0010
0001
0000
0000
0000
,
0100
0001
1000
0010
,
1000
0001
0100
0010
,
0100
0010
1000
0001
,
0100
0000
0010
0100
0000
0000
0000
0000
,
0001
0100
0010
0000
1000
0000
0001
0000
,
1000
0000
0100
0010
0001
0000
0000
0000
,
0010
0001
0100
0000
0010
0000
1000
0000
,
0001
0000
1000
0100
0010
0000
0000
0000
,
0001
1000
0100
0010
,
0001
0101
1001
0000
,
0100
0000
1000
0001
,
0100
0000
0000
0000
0001
0010
0100
1000
,
0010
1000
0001
0100
,
0010
0000
0100
0000
0001
0000
1000
0010
,
1000
0100
1000
0010
,
0100
0000
0001
0000
1000
0000
0001
0100
,
0001
0010
0100
1000
,
0001
0000
0100
0000
0010
0000
1000
0010
,
1000
0001
1000
0100
,
0010
0000
0001
0000
1000
0000
0010
0100
,
0020
0000
0030
0000
;

//---------------dance-single - ----------------
#NOTES:
     dance-single:
     :
     Hard:
     11:
     0.536,0.533,0.204,0.409,0.042: // measure 1
0000
0000
0000
0000
,  // measure 2
0000
0000
0000
0000
,  // measure 3
1001
0000
0000
0000
,  // measure 4
0110
0000
0000
0000
,  // measure 5
0101
0000
0000
0000
,  // measure 6
1010
0000
0000
0000
,  // measure 7
1001
1000
0001
0100
,  // measure 8
0110
1000
0001
0010
,  // measure 9
0011
0100
0010
0001
,  // measure 10
1001
0000
2000
0200
0000
3300
0000
0000
,  // measure 11
0010
0001
0200
0000
0310
1000
0100
1000
,  // measure 12
0001
0100
0010
2000
0002
0000
3003
0000
,  // measure 13
0010
0001
0200
0000
0310
1000
0100
1000
,  // measure 14
0001
0100
0010
2000
0200
0000
3300
0000
,  // measure 15
1000
0001
1000
0010
0100
0000
0010
0100
,  // measure 16
0001
0000
0200
0000
0302
0000
1003
0010
,  // measure 17
0200
0000
0000
0000
0300
0000
0000
0000
0001
0000
0000
0100
0000
0000
0001
0000
,  // measure 18
2000
0000
3000
0000
0010
0100
0001
1000
,  // measure 19
1001
0000
0010
1000
0100
1000
0001
0100
,  // measure 20
0010
0000
0000
0000
0100
0000
0001
0000
0100
0000
0010
0000
1000
0000
0001
1000
,  // measure 21
0001
0000
1000
0100
1000
0001
1000
0010
,  // measure 22
0100
0000
0010
0100
0001
0100
0010
1000
,  // measure 23
0001
0000
1000
0100
0000
0010
0001
0100
,  // measure 24
0000
0010
0000
0100
0001
0000
1000
0000
,  // measure 25
0010
0000
1000
0000
0001
1000
0000
0100
,  // measure 26
0000
1000
0100
0010
0000
0001
0000
0000
,  // measure 27
0100
0000
0001
1000
0000
0010
1000
0100
,  // measure 28
0000
1000
0000
0001
0100
0000
0010
0000
,  // measure 29
1000
1000
0010
0010
1000
1000
0000
0100
,  // measure 30
0000
1100
1001
0101
,  // measure 31
0120
0000
0000
1030
0020
0000
0000
0030
,  // measure 32
0100
0000
0001
0000
1000
0100
0010
0000
,  // measure 33
0101
0000
1001
0000
0100
1000
0000
0010
,  // measure 34
0100
0001
1000
0100
2100
0000
3002
0000
,  // measure 35
0203
0010
0010
0310
,  // measure 36
0020
1000
0100
0130
,  // measure 37
2000
0100
0100
3010
,  // measure 38
0002
0100
0100
0013
,  // measure 39
0101
0000
0000
0000
0010
0000
0000
0000
1000
0000
0000
0100
0000
0000
0010
0000
,  // measure 40
0001
0000
0000
0000
0100
0000
0000
0000
0010
0000
0000
1000
0000
0000
0001
0000
,  // measure 41
2002
0000
0000
3003
,  // measure 42
0000
0100
0010
0100
0000
0001
1000
0001
,  // measure 43
0000
0100
0010
0000
1000
0100
1001
0000
,  // measure 44
0100
1000
0020
0000
0130
0001
0010
0001
,  // measure 45
1000
0010
0100
0002
2000
0000
3003
0000
,  // measure 46
0100
1000
0020
0000
0130
0001
0010
0001
,  // measure 47
1000
0010
0100
0002
0020
0000
0033
0000
,  // measure 48
0001
1000
0001
0100
0010
0000
2000
0000
,  // measure 49
3200
0000
1300
0010
0100
0000
0001
1000
,  // measure 50
0100
2000
3002
0023
,  // measure 51
0031
0000
0200
0002
0000
0000
0303
0000
,  // measure 52
1000
1000
1010
0000
0001
0001
0100
0100
,  // measure 53
0010
0100
0001
2000
0200
0000
3300
0000
,  // measure 54
0010
0010
0011
0000
0100
0100
0010
0010
,  // measure 55
1000
0100
1000
0002
0200
0000
0303
0000
,  // measure 56
0001
1000
0001
1000
0100
0000
1000
0001
,  // measure 57
1000
0000
0200
0000
0320
0000
0031
0100
,  // measure 58
0002
0000
0000
0000
0003
0000
0000
0000
1000
0000
0000
0100
0000
0000
1000
0000
,  // measure 59
0020
0000
0030
0000
1000
0001
0100
0010
,  // measure 60
0110
0000
0100
0001
0010
0001
1000
0010
,  // measure 61
0100
0000
0000
0000
0010
0000
1000
0000
0010
0000
0100
0000
0001
0000
1000
0001
,  // measure 62
1000
0000
0001
0010
0001
1000
0001
0100
,  // measure 63
0010
0000
0000
0000
1000
0000
0100
0000
1000
0000
0010
0000
0100
0000
0001
1000
,  // measure 64
0001
0000
0010
1000
0100
1000
0001
0100
,  // measure 65
0010
0000
0000
0000
0100
0000
0001
0000
0100
0000
0010
0000
1000
0000
0001
1000
,  // measure 66
0001
0000
1000
0100
1000
0001
1000
0010
,  // measure 67
0100
0000
0000
0000
0001
0000
0010
0000
0001
0000
0100
0000
0010
0000
1000
0001
,  // measure 68
2000
0000
3000
0000
;

//---------------dance-single - ----------------
#NOTES:
     dance-single:
     :
     Easy:
     3:
     0.226,0.280,0.130,0.000,0.000:
0000
0000
0000
0000
,
0000
0000
0000
0000
,
1001
0000
0000
0000
,
1001
0000
0000
0000
,
1001
0000
0000
0000
,
1001
0000
0000
0000
,
0100
0000
0001
0000
,
1000
0000
0010
0000
,
1000
0000
0100
0000
,
1000
0000
0000
0000
,
0001
0001
0001
0000
,
1000
1000
1000
0000
,
0010
0010
0010
0000
,
0100
0100
0100
0000
,
0010
1000
0001
0000
,
1000
0001
0100
0000
,
0001
0000
0010
0000
,
0100
0000
1000
0001
,
1001
0000
0100
0000
,
0010
0000
0100
0000
,
1001
0000
0010
0000
,
0100
0000
0010
0000
,
1000
0000
0001
0000
,
1000
0010
0100
0000
,
0010
0000
1000
0000
,
0001
0000
1000
0000
,
0100
0000
0010
0000
,
0001
0000
0100
0001
,
1000
0000
0100
0000
,
0000
1001
1001
1001
,
0100
0000
0010
0000
,
1000
0000
0001
0000
,
1000
0000
0100
0000
,
1000
0000
0010
0100
,
0001
0000
0010
0001
,
1000
0000
0100
0000
,
1000
0000
0010
1000
,
0100
0000
1000
0001
,
0100
0000
0010
0100
,
0010
0000
1000
0001
,
1000
0000
0000
0000
,
0000
0100
0000
0100
,
0000
0000
0000
1001
,
1000
1000
1000
0000
,
0001
0001
0001
0000
,
0100
0100
0100
0000
,
0001
0001
0001
0000
,
0010
0000
0001
0000
,
0100
0001
1000
0000
,
0010
0000
1000
0000
,
0010
1000
0100
0000
,
1000
1000
1000
0000
,
0010
0010
0010
0000
,
0100
0100
0100
0000
,
0001
0001
0001
0000
,
1000
0000
0001
0000
,
0010
0001
0100
0000
,
0001
0000
0100
0000
,
0010
0000
1000
0001
,
0101
0000
1000
0000
,
0100
1000
0010
0000
,
1010
0000
0100
0000
,
0001
1000
0100
0000
,
1001
0000
0010
0000
,
0001
0000
0100
0000
,
0110
0000
0010
0000
,
1000
0010
0100
0001
,
0100
0000
0000
0000
;
